<?xml version="1.0" standalone="no"?>
<!DOCTYPE svg PUBLIC "-//W3C//DTD SVG 1.1//EN" "http://www.w3.org/Graphics/SVG/1.1/DTD/svg11.dtd" >
<svg xmlns="http://www.w3.org/2000/svg" xmlns:xlink="http://www.w3.org/1999/xlink" version="1.1">
<metadata></metadata>
<defs>
<font id="intro_cond_capslight" horiz-adv-x="1249" >
<font-face units-per-em="2048" ascent="2019" descent="-29" />
<missing-glyph horiz-adv-x="456" />
<glyph horiz-adv-x="0" />
<glyph horiz-adv-x="682" />
<glyph unicode=" "  horiz-adv-x="456" />
<glyph unicode="&#x09;" horiz-adv-x="456" />
<glyph unicode="&#xa0;" horiz-adv-x="456" />
<glyph unicode="!" horiz-adv-x="401" d="M139 47q0 29 16.5 46.5t45.5 17.5q27 0 45 -17.5t18 -46.5t-18 -46t-45 -17q-62 0 -62 63zM156 1440h92q0 -196 -1 -586t-1 -586h-88z" />
<glyph unicode="&#x22;" horiz-adv-x="548" d="M131 997v437h80l-10 -437h-70zM344 997v437h80l-12 -437h-68z" />
<glyph unicode="#" horiz-adv-x="1167" d="M74 430v76h225l45 377h-217v75h229l60 474h82l-58 -474h369l61 474h84l-59 -474h199v-75h-209l-47 -377h202v-76h-211l-53 -430h-88l53 430h-368l-54 -430h-88l56 430h-213zM381 504h375l45 381h-371z" />
<glyph unicode="$" horiz-adv-x="1107" d="M78 375h96q11 -133 107 -211.5t229 -91.5v624q-87 11 -154.5 33t-127 62.5t-92 109t-32.5 162.5q0 90 34 164t91 121.5t129 74.5t152 31v137h84v-139q70 -4 136.5 -27.5t124 -66.5t95 -113t43.5 -158h-90q-6 68 -35 120.5t-74 84t-95 49t-105 21.5v-590q166 -30 234 -57 q145 -58 185 -193q17 -58 17 -133q0 -81 -25.5 -147.5t-68 -111.5t-100 -77.5t-117.5 -49t-125 -21.5v-140h-84v140q-78 2 -152 29t-136 74.5t-101 123t-43 166.5zM201 1059q0 -60 19.5 -106t47.5 -73t72.5 -47.5t81.5 -29.5t88 -17v578q-57 -4 -108.5 -22.5t-98 -52.5 t-74.5 -93.5t-28 -136.5zM594 74q61 2 118.5 21t108.5 55t82 98t31 141q0 48 -9.5 87t-27 66.5t-41.5 48.5t-53 35t-62 24.5t-68.5 18t-71.5 14.5q-5 1 -7 1v-610z" />
<glyph unicode="%" horiz-adv-x="1392" d="M66 1124q0 143 76 234.5t204 91.5q113 5 196 -84t83 -244q0 -142 -78 -233.5t-203 -91.5q-120 0 -199 85t-79 242zM145 1124q0 -119 51 -184.5t148 -65.5q86 0 143.5 63t57.5 185q0 111 -53.5 181.5t-145.5 70.5q-82 0 -141.5 -66t-59.5 -184zM291 -2l706 1442h88 l-704 -1442h-90zM770 305q0 142 76.5 234t204.5 92q112 5 195 -84t83 -244q0 -142 -77.5 -234t-202.5 -92q-120 0 -199.5 85.5t-79.5 242.5zM850 305q0 -119 51 -184.5t148 -65.5q86 0 143 63t57 185q0 111 -53 181.5t-145 70.5q-82 0 -141.5 -66t-59.5 -184z" />
<glyph unicode="&#x26;" horiz-adv-x="1128" d="M98 418q0 306 271 389q-185 69 -193 299q0 89 31.5 158t85 108.5t117.5 59.5t137 20q97 0 174 -31.5t128 -106t54 -184.5h-86q-2 65 -25 112.5t-62 73.5t-85 38t-100 12t-102.5 -15t-89 -45t-64 -81.5t-23.5 -118.5q0 -131 83.5 -195.5t230.5 -64.5v-86q-53 0 -78 -2 q-142 -13 -224.5 -91.5t-82.5 -246.5q0 -164 86 -257t245 -93q163 0 243.5 96t80.5 307v365h219v-80h-133v-287q0 -246 -106.5 -367.5t-303.5 -121.5q-201 0 -314.5 119t-113.5 317z" />
<glyph unicode="'" horiz-adv-x="348" d="M131 997v437h92l-12 -437h-80z" />
<glyph unicode="(" horiz-adv-x="497" d="M94 539q-5 311 71.5 580.5t233.5 422.5l54 -59q-81 -92 -135.5 -207.5t-81 -243t-36.5 -241t-10 -246.5q0 -258 72.5 -497t194.5 -370l-60 -61q-82 90 -143 208t-94.5 242.5t-49.5 241.5t-16 230z" />
<glyph unicode=")" horiz-adv-x="499" d="M45 -322q122 130 194 369.5t72 497.5q0 633 -264 936l55 61q154 -166 232.5 -435.5t73.5 -567.5q0 -102 -16 -217.5t-49.5 -242.5t-95 -250t-143.5 -212z" />
<glyph unicode="*" horiz-adv-x="704" d="M102 1210l21 72l199 -90l-5 254h74l-8 -256l197 94l22 -72l-199 -84l146 -196l-57 -45l-140 205l-135 -207l-57 47l141 192z" />
<glyph unicode="+" horiz-adv-x="780" d="M92 709v77h260v301h78v-301h258v-77h-258v-299h-78v299h-260z" />
<glyph unicode="," horiz-adv-x="387" d="M127 41q0 46 37 62.5t71.5 -6t26.5 -68.5l-63 -222h-66l41 168q-21 5 -34 22.5t-13 43.5z" />
<glyph unicode="-" horiz-adv-x="794" d="M123 641v86h549v-86h-549z" />
<glyph unicode="." horiz-adv-x="380" d="M123 57q0 42 33.5 59.5t67.5 0.5t34 -60q0 -39 -34 -56.5t-67.5 -1.5t-33.5 58z" />
<glyph unicode="/" horiz-adv-x="798" d="M57 -2l588 1448h94l-589 -1448h-93z" />
<glyph unicode="0" horiz-adv-x="1134" d="M119 471v487q0 235 125.5 365.5t322.5 130.5q95 0 175.5 -31t141.5 -91t95.5 -156t34.5 -218v-487q0 -239 -125 -366.5t-322 -127.5t-322.5 129t-125.5 365zM209 467q0 -180 91 -288.5t267 -108.5q174 0 265.5 101.5t91.5 295.5v489q0 196 -88.5 304t-268.5 108 q-167 0 -262.5 -108t-95.5 -304v-489z" />
<glyph unicode="1" horiz-adv-x="706" d="M68 0v84h254v1268h-224v82h320v-1350h254v-84h-604z" />
<glyph unicode="2" horiz-adv-x="942" d="M82 0v23l534 745q50 70 80.5 151.5t32.5 160.5t-22 143.5t-88.5 104.5t-161.5 40q-131 0 -200.5 -73.5t-70.5 -219.5h-90q1 184 92.5 280.5t264.5 98.5q154 4 248 -80t112 -217q11 -105 -22.5 -225.5t-104.5 -216.5q-79 -106 -229.5 -320.5t-218.5 -308.5l622 4v-90h-778 z" />
<glyph unicode="3" horiz-adv-x="993" d="M80 369h90q7 -141 92 -221t213 -80q75 0 131 17t102 57t69.5 114.5t23.5 181.5q0 200 -118 296.5t-308 37.5l-15 33l385 545h-616v84h768v-25l-389 -539q169 8 276 -108t107 -320q0 -235 -110 -348.5t-306 -113.5q-166 0 -274.5 101.5t-120.5 287.5z" />
<glyph unicode="4" horiz-adv-x="1003" d="M43 344v41l653 1049h90v-1010h158v-80h-158v-344h-90v344h-653zM172 426h526v399l7 465h-3z" />
<glyph unicode="5" horiz-adv-x="1005" d="M104 352h89q12 -81 39.5 -137t68.5 -86.5t89 -43.5t110 -13q67 0 123.5 20.5t103.5 63t73.5 117.5t26.5 176q0 106 -27 182t-76.5 118t-106.5 61.5t-130 23.5q-149 10 -346 -56v656h707v-86h-621v-467q47 18 130.5 30.5t134.5 8.5q68 -3 128.5 -20t116 -53t95 -88.5 t63 -132t23.5 -177.5q0 -219 -114.5 -343t-305.5 -124q-349 0 -394 370z" />
<glyph unicode="6" horiz-adv-x="1003" d="M63 446q0 156 76 281l400 707h108l-340 -590q91 63 205 63q180 5 303 -122.5t123 -338.5q0 -113 -34.5 -202.5t-95.5 -145.5t-139 -85t-169 -29q-120 0 -218 52t-158.5 158.5t-60.5 251.5zM160 446q0 -172 98 -272t242 -100q149 0 245.5 96t96.5 276q0 99 -27 172.5 t-75.5 115.5t-108.5 62.5t-133 20.5q-145 0 -241.5 -99t-96.5 -272z" />
<glyph unicode="7" horiz-adv-x="860" d="M57 1343v91h791v-17l-608 -1417h-105l584 1343h-662z" />
<glyph unicode="8" horiz-adv-x="1073" d="M96 406q0 146 75.5 249t193.5 142q-87 39 -139 115.5t-52 189.5q0 162 105.5 258t257.5 96q99 0 180.5 -38t133.5 -120.5t52 -195.5q0 -110 -56 -188t-147 -117q120 -38 198.5 -143t78.5 -248q0 -104 -35.5 -187t-96.5 -135t-139.5 -79.5t-168.5 -27.5q-121 0 -220 48 t-160 147t-61 234zM193 408q0 -83 29.5 -150t78.5 -109t109.5 -64t126.5 -22t126.5 21.5t109.5 62t78.5 108.5t29.5 153q0 83 -29.5 149.5t-78.5 107t-109.5 62t-126.5 21.5q-67 0 -128 -21.5t-109.5 -62t-77.5 -107t-29 -149.5zM264 1098q0 -63 23 -114.5t62 -83.5 t87.5 -49t100.5 -17q113 0 194.5 70t81.5 196q0 136 -80 205t-196 69q-112 0 -192.5 -71t-80.5 -205z" />
<glyph unicode="9" horiz-adv-x="1011" d="M63 1006q0 110 36 197t99 141t143.5 82t172.5 28q90 0 168 -28t138.5 -83t95 -144t34.5 -202q0 -153 -78 -280l-417 -717h-109l354 600q-79 -57 -196 -57q-91 0 -169.5 29t-140 85t-96.5 146t-35 203zM160 1006q0 -100 28.5 -175t78.5 -118t112 -63.5t135 -20.5 q145 0 242.5 98t97.5 270q0 181 -96.5 274t-245.5 93q-71 0 -133.5 -22t-112 -64.5t-78 -112.5t-28.5 -159z" />
<glyph unicode=":" horiz-adv-x="378" d="M123 55q0 31 18 49.5t47 18.5q27 0 47.5 -19t20.5 -49t-20.5 -48.5t-47.5 -18.5t-46 19t-19 48zM123 760q0 31 18 49t47 18t48.5 -19t19.5 -48q0 -30 -19 -49t-49 -19q-26 0 -45.5 20t-19.5 48z" />
<glyph unicode=";" horiz-adv-x="382" d="M127 760q0 29 16 46t45 17q27 0 45.5 -17.5t18.5 -45.5q0 -29 -18.5 -46.5t-45.5 -17.5q-61 0 -61 64zM131 43q0 28 17.5 44.5t44.5 16.5q61 0 61 -61q0 -8 -1.5 -17t-6 -25t-9.5 -32.5t-14.5 -50.5t-19.5 -68h-62l35 132q-45 9 -45 61z" />
<glyph unicode="&#x3c;" horiz-adv-x="872" d="M78 655v76l665 346v-92l-559 -293l559 -305v-94z" />
<glyph unicode="=" horiz-adv-x="915" d="M133 449v83h649v-83h-649zM133 741v84h649v-84h-649z" />
<glyph unicode="&#x3e;" horiz-adv-x="872" d="M129 313v95l553 307l-553 286v97l666 -346v-76z" />
<glyph unicode="?" horiz-adv-x="843" d="M63 1096q1 173 95.5 264.5t249.5 91.5q55 0 107 -13t101.5 -43.5t85 -75.5t55.5 -115t15 -156q-6 -75 -32.5 -137.5t-57.5 -100t-76 -91.5t-71 -97q-90 -149 -80 -359h-95q-7 241 97 400q25 40 71 95t76 92t54 92.5t24 113.5q2 86 -20.5 148.5t-64 95.5t-88.5 48t-103 15 q-40 0 -74.5 -7t-68 -26t-57 -48.5t-38 -77t-14.5 -109.5h-91zM344 57q0 29 17.5 45.5t46.5 16.5q26 0 43.5 -17t17.5 -45q0 -30 -17 -47.5t-44 -17.5t-45.5 17.5t-18.5 47.5z" />
<glyph unicode="@" horiz-adv-x="1601" d="M98 518q19 234 116.5 413.5t264 280.5t379.5 101q149 0 272 -54.5t208 -155.5t126 -253t27 -338q-6 -91 -27 -178t-57 -167.5t-95 -129.5t-132 -49q-47 0 -74.5 29.5t-34 67.5t-0.5 81l2 63q-46 -113 -140 -175t-206 -62q-118 0 -201.5 67.5t-120 183t-24.5 261.5 q17 238 145 377t326 139q93 0 188.5 -43.5t157.5 -116.5l-43 -561q-13 -132 -4 -172q9 -51 55 -51q50 -4 92.5 44t67.5 122.5t40 143.5t19 126q25 343 -128.5 538t-444.5 195q-137 0 -256 -50t-209.5 -142t-147.5 -229.5t-69 -305.5q-16 -209 35.5 -372.5t157.5 -257.5 t251 -105q175 -13 330 57l-6 -69q-172 -70 -336 -54q-243 26 -387.5 241.5t-116.5 559.5zM477 504q-6 -88 6.5 -163t43.5 -133.5t87.5 -92t133.5 -33.5q127 0 220 112t111 277l25 352q-98 109 -266 109q-68 0 -130 -28t-111.5 -80t-81.5 -135t-38 -185z" />
<glyph unicode="A" d="M33 0v12l571 1426h43l565 -1426v-12h-100l-162 414h-653l-162 -414h-102zM330 504h588l-293 764z" />
<glyph unicode="B" horiz-adv-x="1165" d="M172 0v1434h453q177 0 283 -91.5t106 -285.5q0 -108 -46 -193t-134 -119q113 -32 174 -126t61 -226q0 -194 -106 -293.5t-281 -99.5h-510zM268 94h410q131 0 213 74t82 225q0 299 -336 299h-369v-598zM268 780h357q137 0 215 62.5t78 216.5q0 65 -15.5 114.5t-42.5 81 t-66 51.5t-81.5 27.5t-94.5 7.5h-350v-561z" />
<glyph unicode="C" horiz-adv-x="1329" d="M96 717q0 215 76.5 382.5t217 261t321.5 93.5q94 0 177.5 -24.5t155 -73.5t123.5 -130t78 -188h-92q-24 87 -70.5 152t-107 102.5t-127 55.5t-139.5 18q-165 0 -283 -85.5t-175.5 -230.5t-57.5 -333q0 -300 133.5 -472.5t384.5 -172.5q353 0 450 354h92 q-21 -111 -75.5 -198t-129 -140t-160.5 -80.5t-177 -27.5q-286 0 -450.5 197.5t-164.5 539.5z" />
<glyph unicode="D" horiz-adv-x="1282" d="M172 0v1434h422q181 0 315.5 -91t205.5 -252.5t71 -373.5t-71 -373.5t-205.5 -252.5t-315.5 -91h-422zM268 94h324q225 0 361.5 169.5t136.5 451.5q0 286 -135.5 456t-360.5 170h-326v-1247z" />
<glyph unicode="E" horiz-adv-x="993" d="M172 0v1434h702v-91h-612v-557h588v-90h-588v-602h621v-94h-711z" />
<glyph unicode="F" horiz-adv-x="962" d="M172 0v1434h715v-91h-619v-561h572v-90h-572v-692h-96z" />
<glyph unicode="G" horiz-adv-x="1363" d="M96 721q0 166 46 304.5t127 232t192 145t239 51.5q192 0 335 -100.5t202 -306.5h-94q-59 166 -171 239.5t-274 73.5q-233 -5 -369 -173.5t-136 -465.5q0 -300 135.5 -471.5t369.5 -171.5q218 0 350.5 147.5t149.5 425.5h-477v84h567v-22q0 -195 -51 -338 q-69 -190 -208.5 -292.5t-330.5 -102.5q-269 0 -435.5 200.5t-166.5 540.5z" />
<glyph unicode="H" horiz-adv-x="1259" d="M172 0v1434h96v-633h723v633h96v-1434h-96v709h-723v-709h-96z" />
<glyph unicode="I" horiz-adv-x="661" d="M55 0v84h228v1268h-213v82h524v-82h-215v-1268h227v-84h-551z" />
<glyph unicode="J" horiz-adv-x="1118" d="M61 483v103h91v-103q0 -204 94.5 -307.5t255.5 -103.5q165 0 264.5 104t99.5 307v867h-340v84h430v-951q0 -245 -125.5 -374t-326.5 -129t-322 129.5t-121 373.5z" />
<glyph unicode="K" horiz-adv-x="1130" d="M170 0v1434h96v-686q238 0 309 49q17 11 32 29t29.5 47.5t23.5 49.5t22 62.5t17.5 57.5t17 63.5t14.5 54.5q13 53 27.5 93t35 76t46.5 58q25 20 59 36q33 15 73 15q1 1 3 1q42 0 96 -8v-76q-30 4 -56 4q-75 0 -113 -36q-52 -50 -83 -185q-17 -71 -28 -112t-32 -102.5 t-47 -106t-59 -75.5l449 -729v-14h-103l-421 698q-66 -39 -312 -39v-659h-96z" />
<glyph unicode="L" horiz-adv-x="892" d="M172 0v1434h96v-1344h604v-90h-700z" />
<glyph unicode="M" horiz-adv-x="1437" d="M172 0v1436h41l506 -861l504 861h41v-1436h-90v1178l-445 -758h-20l-447 758v-1178h-90z" />
<glyph unicode="N" horiz-adv-x="1296" d="M172 0v1436h37l829 -1203l-8 517v686h96v-1436h-30l-834 1202l6 -481v-721h-96z" />
<glyph unicode="O" horiz-adv-x="1425" d="M96 717q0 171 47.5 311.5t130.5 233t195 142.5t242 50q132 0 245 -50t196 -142.5t130 -233t47 -311.5q0 -344 -169.5 -540.5t-448.5 -196.5q-131 0 -243.5 50t-195 142.5t-129.5 233t-47 311.5zM193 717q0 -299 143.5 -471t374.5 -172q234 0 378 168.5t144 474.5 q0 302 -143 472.5t-377 170.5q-230 0 -375 -173.5t-145 -469.5z" />
<glyph unicode="P" horiz-adv-x="1134" d="M172 0v1434h471q192 0 310 -124t118 -352q0 -217 -119.5 -345t-306.5 -128h-377v-485h-96zM268 580h375q145 0 238.5 96.5t93.5 284.5q0 190 -91.5 286t-240.5 96h-375v-763z" />
<glyph unicode="Q" horiz-adv-x="1425" d="M96 717q0 171 47.5 311.5t130.5 233.5t195 143.5t242 50.5q132 0 245 -50.5t196 -143.5t130 -233t47 -312q0 -319 -151 -516l174 -199v-6h-117l-121 135q-157 -151 -403 -151q-131 0 -243.5 50t-195 142.5t-129.5 233t-47 311.5zM193 717q0 -299 143.5 -471t374.5 -172 q234 0 378 168.5t144 474.5q0 302 -143.5 473.5t-376.5 171.5q-229 0 -374.5 -175t-145.5 -470z" />
<glyph unicode="R" horiz-adv-x="1163" d="M172 0v1434h473q181 0 295.5 -121.5t114.5 -325.5q0 -174 -90 -287t-232 -139l379 -555v-6h-113l-366 547h-365v-547h-96zM266 635h377q136 0 225.5 93.5t89.5 260.5q0 173 -87.5 263.5t-227.5 90.5h-377v-708z" />
<glyph unicode="S" horiz-adv-x="1134" d="M86 375h96q3 -70 30.5 -125t67.5 -88t93.5 -54.5t103.5 -29.5t101 -8q67 0 129.5 18t117.5 54.5t89 99t36 143.5v10q0 35 -6 63q-7 34 -18 59t-32.5 47.5t-39.5 37.5t-50.5 29t-54 21.5t-61 17t-60.5 13.5t-63 11q-56 8 -96 16t-90 22.5t-84.5 32t-70.5 45.5t-58 63 t-35.5 84.5t-13.5 109.5q0 98 39.5 175t104.5 122t140.5 67.5t155.5 22.5q69 0 131.5 -12.5t119.5 -41t100 -71t70 -106t32 -142.5h-90q-5 65 -30 116t-60.5 82t-83.5 50.5t-93 27t-94 7.5q-65 0 -123.5 -15.5t-110 -48.5t-82 -92.5t-30.5 -138.5q0 -67 24 -117t52.5 -77.5 t85.5 -47.5t89.5 -26.5t97.5 -15.5q4 -1 6.5 -1t6.5 -1t7 -1q58 -10 100 -19t94.5 -25t89 -35.5t73.5 -49.5t59 -67t36 -89q13 -48 13 -105v-9q-2 -102 -42.5 -181.5t-107.5 -126.5t-147.5 -71t-169.5 -24q-71 0 -136.5 11.5t-130.5 40.5t-113.5 72.5t-79.5 113t-34 157.5z " />
<glyph unicode="T" horiz-adv-x="942" d="M29 1346v88h886v-88h-395v-1346h-96v1346h-395z" />
<glyph unicode="U" horiz-adv-x="1232" d="M160 492v942h90v-940q0 -206 99.5 -311t268.5 -105q166 0 264.5 105.5t98.5 310.5v940h90v-942q0 -246 -124.5 -378t-328.5 -132q-208 0 -333 131.5t-125 378.5z" />
<glyph unicode="V" horiz-adv-x="1159" d="M55 1419v15h101l229 -664l197 -571l190 571l227 664h103v-15l-502 -1423h-41z" />
<glyph unicode="W" horiz-adv-x="1677" d="M76 1417v17h100l193 -756l110 -475l336 1204h45l344 -1202l103 471l192 758h103v-13l-369 -1427h-70l-325 1171l-322 -1171h-67z" />
<glyph unicode="X" horiz-adv-x="1064" d="M20 0v14l457 742l-409 663v15h102l362 -605h3l182 308l180 297h100v-13l-409 -665l456 -744v-12h-106l-217 365l-186 315h-5l-178 -307l-223 -373h-109z" />
<glyph unicode="Y" horiz-adv-x="1122" d="M63 1421v13h105l194 -365l197 -379h2l197 379l194 365h103v-15l-447 -823v-596h-96v596z" />
<glyph unicode="Z" horiz-adv-x="1001" d="M25 0v12l503 877l267 454h-691v91h836v-17q-583 -1008 -766 -1329l766 2v-90h-915z" />
<glyph unicode="[" horiz-adv-x="489" d="M158 -344v1880h274v-82h-184v-1710h184v-88h-274z" />
<glyph unicode="\" horiz-adv-x="800" d="M57 1434h99l587 -1432h-96z" />
<glyph unicode="]" horiz-adv-x="489" d="M59 -256h185v1706h-185v82h275v-1876h-275v88z" />
<glyph unicode="^" horiz-adv-x="864" d="M102 866l293 564h68l299 -564h-86l-248 469l-238 -469h-88z" />
<glyph unicode="_" horiz-adv-x="1069" d="M121 -16h827v-82h-827v82z" />
<glyph unicode="`" horiz-adv-x="610" d="M193 1436l77 41l150 -254v-6h-80z" />
<glyph unicode="a" d="M33 0v12l571 1426h43l565 -1426v-12h-100l-162 414h-653l-162 -414h-102zM330 504h588l-293 764z" />
<glyph unicode="b" horiz-adv-x="1165" d="M172 0v1434h453q177 0 283 -91.5t106 -285.5q0 -108 -46 -193t-134 -119q113 -32 174 -126t61 -226q0 -194 -106 -293.5t-281 -99.5h-510zM268 94h410q131 0 213 74t82 225q0 299 -336 299h-369v-598zM268 780h357q137 0 215 62.5t78 216.5q0 65 -15.5 114.5t-42.5 81 t-66 51.5t-81.5 27.5t-94.5 7.5h-350v-561z" />
<glyph unicode="c" horiz-adv-x="1329" d="M96 717q0 215 76.5 382.5t217 261t321.5 93.5q94 0 177.5 -24.5t155 -73.5t123.5 -130t78 -188h-92q-24 87 -70.5 152t-107 102.5t-127 55.5t-139.5 18q-165 0 -283 -85.5t-175.5 -230.5t-57.5 -333q0 -300 133.5 -472.5t384.5 -172.5q353 0 450 354h92 q-21 -111 -75.5 -198t-129 -140t-160.5 -80.5t-177 -27.5q-286 0 -450.5 197.5t-164.5 539.5z" />
<glyph unicode="d" horiz-adv-x="1282" d="M172 0v1434h422q181 0 315.5 -91t205.5 -252.5t71 -373.5t-71 -373.5t-205.5 -252.5t-315.5 -91h-422zM268 94h324q225 0 361.5 169.5t136.5 451.5q0 286 -135.5 456t-360.5 170h-326v-1247z" />
<glyph unicode="e" horiz-adv-x="993" d="M172 0v1434h702v-91h-612v-557h588v-90h-588v-602h621v-94h-711z" />
<glyph unicode="f" horiz-adv-x="962" d="M172 0v1434h715v-91h-619v-561h572v-90h-572v-692h-96z" />
<glyph unicode="g" horiz-adv-x="1363" d="M96 721q0 166 46 304.5t127 232t192 145t239 51.5q192 0 335 -100.5t202 -306.5h-94q-59 166 -171 239.5t-274 73.5q-233 -5 -369 -173.5t-136 -465.5q0 -300 135.5 -471.5t369.5 -171.5q218 0 350.5 147.5t149.5 425.5h-477v84h567v-22q0 -195 -51 -338 q-69 -190 -208.5 -292.5t-330.5 -102.5q-269 0 -435.5 200.5t-166.5 540.5z" />
<glyph unicode="h" horiz-adv-x="1259" d="M172 0v1434h96v-633h723v633h96v-1434h-96v709h-723v-709h-96z" />
<glyph unicode="i" horiz-adv-x="661" d="M55 0v84h228v1268h-213v82h524v-82h-215v-1268h227v-84h-551z" />
<glyph unicode="j" horiz-adv-x="1118" d="M61 483v103h91v-103q0 -204 94.5 -307.5t255.5 -103.5q165 0 264.5 104t99.5 307v867h-340v84h430v-951q0 -245 -125.5 -374t-326.5 -129t-322 129.5t-121 373.5z" />
<glyph unicode="k" horiz-adv-x="1130" d="M170 0v1434h96v-686q238 0 309 49q17 11 32 29t29.5 47.5t23.5 49.5t22 62.5t17.5 57.5t17 63.5t14.5 54.5q13 53 27.5 93t35 76t46.5 58q25 20 59 36q33 15 73 15q1 1 3 1q42 0 96 -8v-76q-30 4 -56 4q-75 0 -113 -36q-52 -50 -83 -185q-17 -71 -28 -112t-32 -102.5 t-47 -106t-59 -75.5l449 -729v-14h-103l-421 698q-66 -39 -312 -39v-659h-96z" />
<glyph unicode="l" horiz-adv-x="892" d="M172 0v1434h96v-1344h604v-90h-700z" />
<glyph unicode="m" horiz-adv-x="1437" d="M172 0v1436h41l506 -861l504 861h41v-1436h-90v1178l-445 -758h-20l-447 758v-1178h-90z" />
<glyph unicode="n" horiz-adv-x="1296" d="M172 0v1436h37l829 -1203l-8 517v686h96v-1436h-30l-834 1202l6 -481v-721h-96z" />
<glyph unicode="o" horiz-adv-x="1425" d="M96 717q0 171 47.5 311.5t130.5 233t195 142.5t242 50q132 0 245 -50t196 -142.5t130 -233t47 -311.5q0 -344 -169.5 -540.5t-448.5 -196.5q-131 0 -243.5 50t-195 142.5t-129.5 233t-47 311.5zM193 717q0 -299 143.5 -471t374.5 -172q234 0 378 168.5t144 474.5 q0 302 -143 472.5t-377 170.5q-230 0 -375 -173.5t-145 -469.5z" />
<glyph unicode="p" horiz-adv-x="1134" d="M172 0v1434h471q192 0 310 -124t118 -352q0 -217 -119.5 -345t-306.5 -128h-377v-485h-96zM268 580h375q145 0 238.5 96.5t93.5 284.5q0 190 -91.5 286t-240.5 96h-375v-763z" />
<glyph unicode="q" horiz-adv-x="1441" d="M96 717q0 171 47.5 311.5t130.5 233.5t195 143.5t242 50.5q132 0 245 -50.5t196 -143.5t130 -233t47 -312q0 -319 -151 -516l174 -199v-6h-117l-121 135q-157 -151 -403 -151q-131 0 -243.5 50t-195 142.5t-129.5 233t-47 311.5zM193 717q0 -299 143.5 -471t374.5 -172 q234 0 378 168.5t144 474.5q0 302 -143.5 473.5t-376.5 171.5q-229 0 -374.5 -175t-145.5 -470z" />
<glyph unicode="r" horiz-adv-x="1163" d="M172 0v1434h473q181 0 295.5 -121.5t114.5 -325.5q0 -174 -90 -287t-232 -139l379 -555v-6h-113l-366 547h-365v-547h-96zM266 635h377q136 0 225.5 93.5t89.5 260.5q0 173 -87.5 263.5t-227.5 90.5h-377v-708z" />
<glyph unicode="s" horiz-adv-x="1134" d="M86 375h96q3 -70 30.5 -125t67.5 -88t93.5 -54.5t103.5 -29.5t101 -8q67 0 129.5 18t117.5 54.5t89 99t36 143.5v10q0 35 -6 63q-7 34 -18 59t-32.5 47.5t-39.5 37.5t-50.5 29t-54 21.5t-61 17t-60.5 13.5t-63 11q-56 8 -96 16t-90 22.5t-84.5 32t-70.5 45.5t-58 63 t-35.5 84.5t-13.5 109.5q0 98 39.5 175t104.5 122t140.5 67.5t155.5 22.5q69 0 131.5 -12.5t119.5 -41t100 -71t70 -106t32 -142.5h-90q-5 65 -30 116t-60.5 82t-83.5 50.5t-93 27t-94 7.5q-65 0 -123.5 -15.5t-110 -48.5t-82 -92.5t-30.5 -138.5q0 -67 24 -117t52.5 -77.5 t85.5 -47.5t89.5 -26.5t97.5 -15.5q4 -1 6.5 -1t6.5 -1t7 -1q58 -10 100 -19t94.5 -25t89 -35.5t73.5 -49.5t59 -67t36 -89q13 -48 13 -105v-9q-2 -102 -42.5 -181.5t-107.5 -126.5t-147.5 -71t-169.5 -24q-71 0 -136.5 11.5t-130.5 40.5t-113.5 72.5t-79.5 113t-34 157.5z " />
<glyph unicode="t" horiz-adv-x="942" d="M29 1346v88h886v-88h-395v-1346h-96v1346h-395z" />
<glyph unicode="u" horiz-adv-x="1232" d="M160 492v942h90v-940q0 -206 99.5 -311t268.5 -105q166 0 264.5 105.5t98.5 310.5v940h90v-942q0 -246 -124.5 -378t-328.5 -132q-208 0 -333 131.5t-125 378.5z" />
<glyph unicode="v" horiz-adv-x="1159" d="M55 1419v15h101l229 -664l197 -571l190 571l227 664h103v-15l-502 -1423h-41z" />
<glyph unicode="w" horiz-adv-x="1677" d="M76 1417v17h100l193 -756l110 -475l336 1204h45l344 -1202l103 471l192 758h103v-13l-369 -1427h-70l-325 1171l-322 -1171h-67z" />
<glyph unicode="x" horiz-adv-x="1064" d="M20 0v14l457 742l-409 663v15h102l362 -605h3l182 308l180 297h100v-13l-409 -665l456 -744v-12h-106l-217 365l-186 315h-5l-178 -307l-223 -373h-109z" />
<glyph unicode="y" horiz-adv-x="1122" d="M63 1421v13h105l194 -365l197 -379h2l197 379l194 365h103v-15l-447 -823v-596h-96v596z" />
<glyph unicode="z" horiz-adv-x="1001" d="M25 0v12l503 877l267 454h-691v91h836v-17q-583 -1008 -766 -1329l766 2v-90h-915z" />
<glyph unicode="{" horiz-adv-x="483" d="M72 573v76q100 19 100 234v403q0 146 57 205t197 59v-73q-89 0 -128.5 -42t-39.5 -151v-342q0 -52 -0.5 -76t-5 -73.5t-13.5 -77t-28 -58t-47 -45.5q17 -9 30.5 -22.5t23 -33t17 -36t11.5 -43.5t7 -42t4 -45.5t1 -40v-39.5v-31v-328q0 -92 15.5 -136.5t49 -59.5 t103.5 -15v-78q-65 0 -108.5 10.5t-78.5 39t-51 82t-16 134.5q0 46 3.5 159.5t2 196.5t-11.5 150q-19 122 -94 139z" />
<glyph unicode="|" horiz-adv-x="401" d="M158 -156v1586h86v-1586h-86z" />
<glyph unicode="}" horiz-adv-x="481" d="M59 -254q90 0 127 38.5t37 145.5v349v13q0 49 0.5 76t5.5 72.5t14.5 73.5t28.5 56t47 42q-15 9 -28 23t-22.5 29t-17 36t-12 38.5t-8 42t-5 40t-2.5 39t-1 34v29v19.5v342q0 107 -37.5 148t-126.5 41v77q49 0 84.5 -5.5t69 -22.5t54.5 -46t33.5 -76.5t12.5 -113.5v-403 q0 -42 2.5 -72.5t11 -69t29 -62.5t52.5 -30v-76q-95 -20 -95 -231q0 -46 1.5 -126t2 -128t-1.5 -114t-10 -108t-22.5 -84.5t-40 -68.5t-60.5 -37q-43 -14 -123 -14v84z" />
<glyph unicode="~" horiz-adv-x="1069" d="M135 653q36 99 91.5 144.5t120.5 39t142 -56.5q11 -4 154 -94q67 -43 134.5 -13.5t96.5 118.5l64 -25q-44 -123 -132 -163.5t-198 13.5l-145 86q-87 66 -159 47.5t-109 -124.5z" />
<glyph unicode="&#xa1;" horiz-adv-x="382" d="M131 936q0 28 18.5 45.5t45.5 17.5t44 -16.5t17 -46.5q0 -64 -61 -64q-27 0 -45.5 17.5t-18.5 46.5zM141 -461l4 1172h93v-1172h-97z" />
<glyph unicode="&#xa2;" horiz-adv-x="1009" d="M78 498q0 245 147 389q81 78 188 107t210 3l45 154h51l-49 -166q175 -76 231 -274l-86 -11q-51 144 -174 197l-231 -807q53 -20 118 -20q101 0 184 68.5t117 189.5l91 -9q-37 -138 -126.5 -222.5t-213.5 -108.5q-105 -19 -197 18l-47 -166h-51l53 185q-122 63 -191 182 t-69 291zM168 498q0 -140 53 -237.5t144 -147.5l229 798q-82 18 -160.5 -2.5t-138.5 -79.5q-127 -120 -127 -331z" />
<glyph unicode="&#xa3;" horiz-adv-x="1128" d="M74 690v82h155q-21 191 -6 303q23 192 127 284.5t299 92.5q197 0 334 -131l-37 -76q-130 121 -295 121q-151 -5 -234 -71t-102 -220q-16 -128 7 -303h444v-82h-434q6 -30 10 -60.5t7 -69t5 -52.5q11 -218 -78 -365q66 32 140 23q63 -8 185.5 -49t184.5 -49q14 -2 33 -2 q42 0 67.5 6.5t48.5 26.5t30.5 62.5t1.5 110.5h80q11 -163 -45 -227.5t-173 -64.5q-66 0 -221.5 42.5t-224.5 47.5q-128 10 -190 -70h-97v12q80 94 120.5 184.5t47.5 225.5q0 112 -24 268h-166z" />
<glyph unicode="&#xa4;" horiz-adv-x="927" d="M115 352l104 123q-63 89 -63 221t59 215l-100 121l57 60l98 -119q83 71 193 71q106 0 190 -75l103 123l57 -60l-100 -121q57 -96 57 -215q0 -131 -61 -219l104 -125l-57 -59l-105 125q-85 -66 -176 -72q-114 -10 -199 72l-104 -125zM236 696q0 -116 62.5 -189.5 t152.5 -78.5q96 -5 168.5 65.5t72.5 202.5q0 116 -62.5 190t-152.5 79q-97 5 -169 -65.5t-72 -203.5z" />
<glyph unicode="&#xa5;" horiz-adv-x="927" d="M61 1421v13h105l299 -740l303 740h98v-13l-331 -780h227v-84h-250v-137h250v-76h-250v-344h-96v344h-250v76h250v137h-250v84h227z" />
<glyph unicode="&#xa6;" horiz-adv-x="397" d="M156 -20v622h86v-622h-86zM156 815v615h86v-615h-86z" />
<glyph unicode="&#xa7;" horiz-adv-x="1058" d="M94 88h90q2 -56 30 -101t68.5 -72t89.5 -44t90 -23t73 -4q40 2 81 10t87 26.5t80.5 45t57.5 70t23 96.5q0 59 -22 101.5t-55 65t-81.5 38t-91 21t-95 13t-81.5 15.5q-61 7 -112 23.5t-98.5 48t-75 86.5t-27.5 129q-11 201 188 282q-82 25 -132 84.5t-50 157.5 q0 66 23.5 120.5t62 91t90 62t105.5 37t110 11.5q53 2 107 -8t106 -34t93 -59t67 -87.5t29 -114.5h-82q-4 65 -39 113t-87.5 71t-100 33t-91.5 10q-42 0 -82.5 -7.5t-81.5 -25.5t-71.5 -45t-50 -70t-19.5 -96q0 -46 17.5 -80t36 -53t68 -35.5t72.5 -21t91 -15.5q15 -3 22 -4 q173 -22 245 -48q145 -53 175 -187q8 -38 8 -84q0 -92 -49.5 -164.5t-126.5 -110.5q85 -36 130.5 -96t45.5 -168q0 -69 -26.5 -125.5t-69 -93t-99 -61.5t-112 -36.5t-112.5 -13.5q-69 -4 -141.5 12.5t-140.5 52.5t-112.5 104t-46.5 157zM215 635q1 -58 22.5 -97.5t54 -59 t82 -32.5t96 -18t108 -15t106.5 -24q76 25 128 90.5t52 153.5q0 42 -12 75t-29 56t-50.5 41t-61.5 28.5t-78.5 19.5t-84 13.5t-93.5 10.5l-43 6q-85 -25 -141 -86t-56 -162z" />
<glyph unicode="&#xa8;" horiz-adv-x="841" d="M162 1380q0 32 19 53t50 21q30 0 50 -20t20 -54q0 -30 -20 -49.5t-50 -19.5q-32 0 -50.5 19.5t-18.5 49.5zM537 1380q0 32 19 53t50 21q30 0 50 -20t20 -54q0 -30 -20 -49.5t-50 -19.5q-32 0 -50.5 19.5t-18.5 49.5z" />
<glyph unicode="&#xa9;" horiz-adv-x="1370" d="M100 717q0 108 25 210t75 189.5t119 153.5t162.5 103.5t200.5 37.5q73 0 144 -19t137 -56t121.5 -95.5t97 -133.5t65 -175t23.5 -215q0 -141 -42.5 -268t-118 -221t-186 -149.5t-239.5 -55.5q-120 0 -224.5 43.5t-185.5 127.5t-127.5 218.5t-46.5 304.5zM170 717 q0 -97 19.5 -187.5t60.5 -171t100 -140t144.5 -94t187.5 -34.5t194 40t165.5 116t117 198t43.5 273q0 127 -33.5 239t-97 199t-164.5 137.5t-227 50.5q-97 0 -186.5 -39t-162.5 -113.5t-117 -197t-44 -276.5zM379 705q0 102 27 181t73 124.5t100.5 68.5t114.5 23 q99 0 174.5 -56t98.5 -174h-74q-18 78 -70 117t-129 41q-48 0 -90 -18t-77.5 -55t-56.5 -101.5t-21 -150.5q0 -166 70.5 -246t170.5 -80q74 0 130 42t79 138h74q-28 -127 -106.5 -189.5t-178.5 -62.5q-58 0 -111 23t-98.5 68.5t-72.5 125t-27 181.5z" />
<glyph unicode="&#xaa;" horiz-adv-x="761" d="M84 924q0 118 70 181.5t176 63.5q114 0 213 -61v51q0 116 -49 160.5t-154 44.5q-108 0 -182 -55l-19 71q94 64 211 64q55 0 100.5 -12.5t84.5 -41t61 -81t22 -125.5v-318q0 -69 13.5 -91t58.5 -15l4 -62q-41 -10 -65 -2q-86 24 -78 129q-33 -67 -100.5 -100t-143.5 -33 q-56 0 -105 24.5t-83.5 79t-34.5 128.5zM100 449v73h551v-73h-551zM164 926q0 -76 43 -117t110 -41q75 0 140 37t84 115v114q-89 62 -203 62q-72 0 -123 -41.5t-51 -128.5z" />
<glyph unicode="&#xab;" horiz-adv-x="780" d="M96 709l223 436l72 -25l-184 -411l184 -408l-72 -27zM367 709l223 436l72 -25l-185 -411l185 -408l-72 -27z" />
<glyph unicode="&#xac;" horiz-adv-x="952" d="M135 666v86h684v-394h-78v308h-606z" />
<glyph unicode="&#xad;" horiz-adv-x="794" d="M123 641v86h549v-86h-549z" />
<glyph unicode="&#xae;" horiz-adv-x="1370" d="M100 717q0 108 25 210t75 189.5t119 153.5t162.5 103.5t200.5 37.5q73 0 144 -19t137 -56t121.5 -95.5t97 -133.5t65 -175t23.5 -215q0 -141 -42.5 -268t-118 -221t-186 -149.5t-239.5 -55.5q-120 0 -224.5 43.5t-185.5 127.5t-127.5 218.5t-46.5 304.5zM170 717 q0 -97 19.5 -187.5t60.5 -171t100 -140t144.5 -94t187.5 -34.5t194 40t165.5 116t117 198t43.5 273q0 127 -33.5 239t-97 199t-164.5 137.5t-227 50.5q-97 0 -186.5 -39t-162.5 -113.5t-117 -197t-44 -276.5zM506 379v668h225q85 0 140 -56t55 -155q0 -84 -38.5 -138.5 t-105.5 -66.5l164 -244v-8h-76l-153 244h-148v-244h-63zM569 684h131q162 0 162 152q0 70 -38 110.5t-97 40.5h-158v-303z" />
<glyph unicode="&#xaf;" horiz-adv-x="892" d="M180 1352v80h502v-80h-502z" />
<glyph unicode="&#xb0;" horiz-adv-x="731" d="M92 1145q0 130 75 212t183 87q115 5 202 -72.5t87 -226.5q0 -132 -75.5 -214t-182.5 -87q-54 -2 -104.5 15.5t-92 53t-67 96t-25.5 136.5zM166 1145q0 -101 54 -163t132 -67q84 -5 147.5 56.5t63.5 173.5q0 98 -53 161t-133 68q-86 5 -148.5 -56t-62.5 -173z" />
<glyph unicode="&#xb1;" horiz-adv-x="880" d="M121 0v82h635v-82h-635zM139 711v77h262v312h78v-312h262v-77h-262v-330h-78v330h-262z" />
<glyph unicode="&#xb2;" horiz-adv-x="700" d="M109 778v19l288 377q98 118 88 219q-6 57 -44 94t-101 37q-78 0 -114 -32.5t-42 -107.5h-63q6 107 59.5 156t159.5 49q91 0 147.5 -52t67.5 -134q9 -126 -96 -262l-219 -289h354v-74h-485z" />
<glyph unicode="&#xb3;" horiz-adv-x="681" d="M88 991h72q19 -157 170 -157q180 0 180 194q0 87 -49 130t-123 48q-35 3 -78 -10v21l193 294h-330v66h448v-14l-200 -299q98 -5 156.5 -68.5t58.5 -167.5q0 -124 -67.5 -196t-188.5 -72q-102 0 -167 56.5t-75 174.5z" />
<glyph unicode="&#xb4;" horiz-adv-x="552" d="M150 1176v6l149 254l78 -41l-148 -219h-79z" />
<glyph unicode="&#xb5;" horiz-adv-x="1044" d="M158 -512v1501h90v-573q0 -163 68.5 -252.5t201.5 -89.5q121 0 200 93t79 251v571h90v-989h-90v178q-44 -105 -108.5 -150.5t-168.5 -45.5q-103 0 -166 37.5t-106 125.5v-657h-90z" />
<glyph unicode="&#xb6;" horiz-adv-x="1245" d="M66 817q-13 109 6.5 216t68 197t137.5 146t205 56h584v-1821h-90v1730h-408v-1730h-96v754q-112 3 -202 67.5t-140.5 164t-64.5 220.5z" />
<glyph unicode="&#xb7;" horiz-adv-x="395" d="M123 731q0 35 21.5 56.5t52.5 21.5t53 -21t22 -57q0 -34 -22 -54t-53 -20q-30 0 -52 21t-22 53z" />
<glyph unicode="&#xb8;" horiz-adv-x="706" d="M188 -395l27 63q35 -30 91 -42.5t100 1.5q47 19 62.5 66t-9.5 88q-19 34 -65 48.5t-93 8.5l37 182h72l-27 -122q47 -4 86.5 -26.5t56.5 -53.5q39 -80 10 -156t-106 -102q-58 -21 -129.5 -8.5t-112.5 53.5z" />
<glyph unicode="&#xb9;" horiz-adv-x="561" d="M109 778v68h145v665h-129v68h203v-733h147v-68h-366z" />
<glyph unicode="&#xba;" horiz-adv-x="827" d="M66 1090q0 170 94 273.5t231 111.5q55 3 106 -8t99 -40t83.5 -73t57 -112t21.5 -152q0 -169 -102 -278.5t-263 -102.5q-64 2 -121.5 27.5t-104 71.5t-74 119t-27.5 163zM92 440v88h645v-88h-645zM156 1090q0 -133 71 -211.5t170 -83.5q51 -2 97.5 13t86 48t63.5 93.5 t24 140.5q0 153 -67.5 227t-176.5 74q-51 0 -96.5 -16t-85 -49.5t-63 -94t-23.5 -141.5z" />
<glyph unicode="&#xbb;" horiz-adv-x="778" d="M117 301l186 408l-186 411l71 25l224 -436l-224 -435zM387 301l186 408l-186 411l72 25l223 -436l-223 -435z" />
<glyph unicode="&#xbc;" horiz-adv-x="1499" d="M84 649v68h145v665h-129v68h203v-733h148v-68h-367zM416 2l588 1432h79l-589 -1432h-78zM897 186v35l369 582h75v-549h95v-68h-95v-184h-71v184h-373zM1004 252h270v207l2 235z" />
<glyph unicode="&#xbd;" horiz-adv-x="1527" d="M80 649v68h145v665h-129v68h203v-733h147v-68h-366zM408 2l587 1432h86l-589 -1432h-84zM983 0v18l289 377q98 118 88 219q-6 56 -39 90.5t-92 38.5q-81 0 -116.5 -36.5t-41.5 -112.5h-70q21 217 226 217q89 -4 141.5 -53t63.5 -129q19 -112 -99 -269l-221 -288h350v-72 h-479z" />
<glyph unicode="&#xbe;" horiz-adv-x="1544" d="M78 844h67q13 -156 170 -156q82 0 131.5 49t49.5 144q0 83 -47.5 128t-124.5 50q-35 3 -78 -10v20l192 293h-329v68h448v-15l-201 -301q94 -5 153.5 -66.5t59.5 -166.5q0 -112 -69.5 -187.5t-184.5 -75.5q-218 0 -237 226zM442 2l648 1444h81l-649 -1444h-80zM932 184v37 l377 582h75v-551h97v-68h-97v-182h-71v182h-381zM1038 250h279v209l2 235z" />
<glyph unicode="&#xbf;" horiz-adv-x="827" d="M63 -61q6 69 30 125.5t53 91.5t76.5 94.5t80.5 114.5q87 139 84 354h90q2 -255 -100 -406q-26 -38 -72 -93.5t-74 -91t-51.5 -90.5t-25.5 -114q0 -151 71.5 -218.5t186.5 -67.5q52 0 96.5 11.5t85.5 38t65.5 77.5t26.5 122h86q0 -169 -101.5 -256.5t-258.5 -87.5 q-69 0 -133.5 24.5t-117.5 71t-80.5 124.5t-17.5 176zM367 942q0 30 17 48t44 18t46.5 -18t19.5 -48t-18 -45.5t-48 -15.5q-27 0 -44 16t-17 45z" />
<glyph unicode="&#xc0;" d="M33 0v12l571 1426h43l565 -1426v-12h-100l-162 414h-653l-162 -414h-102zM330 504h588l-293 764zM440 1782v10l82 41l148 -268v-6h-84z" />
<glyph unicode="&#xc1;" d="M33 0v12l571 1426h43l565 -1426v-12h-100l-162 414h-653l-162 -414h-102zM330 504h588l-293 764zM571 1554v7l146 268l82 -41v-10l-146 -224h-82z" />
<glyph unicode="&#xc2;" d="M33 0v12l571 1426h43l565 -1426v-12h-100l-162 414h-653l-162 -414h-102zM330 504h588l-293 764zM338 1532v10l240 254h94l237 -256v-8h-98l-184 201l-189 -201h-100z" />
<glyph unicode="&#xc3;" d="M33 0v12l571 1426h43l565 -1426v-12h-100l-162 414h-653l-162 -414h-102zM330 504h588l-293 764zM365 1591q48 86 106 111q35 19 86 11t92 -44q53 -34 72 -38q10 -2 20 -1q47 3 88 80q27 -12 54 -33q-34 -73 -88 -104q-25 -14 -53 -18t-62 6t-64 36q-54 42 -98 39 q-53 -3 -94 -80l-37 23q-10 6 -22 12z" />
<glyph unicode="&#xc4;" d="M33 0v12l571 1426h43l565 -1426v-12h-100l-162 414h-653l-162 -414h-102zM330 504h588l-293 764zM369 1632q0 29 18.5 48.5t44.5 19.5q27 0 45.5 -19t18.5 -49q0 -28 -18.5 -45.5t-45.5 -17.5q-28 0 -45.5 18.5t-17.5 44.5zM756 1632q0 30 17 49t46 19q27 0 45.5 -19 t18.5 -49q0 -28 -19 -45.5t-45 -17.5q-28 0 -45.5 18.5t-17.5 44.5z" />
<glyph unicode="&#xc5;" d="M33 0v12l565 1413q-73 7 -122.5 59t-49.5 148q0 109 67 166.5t154 44.5q72 -13 121 -68t49 -143q0 -89 -49 -144t-117 -61l561 -1415v-12h-96l-164 414h-655l-164 -414h-100zM330 504h590l-295 762zM496 1632q0 -62 32.5 -96t83.5 -39q55 -5 95.5 31t40.5 104 q0 64 -38 100.5t-89 36.5t-88 -36.5t-37 -100.5z" />
<glyph unicode="&#xc6;" horiz-adv-x="1427" d="M16 0v14l643 1420h658v-88h-522v-558h497v-88h-497v-612h530v-88h-620v442h-394l-196 -442h-99zM346 530h359l2 805z" />
<glyph unicode="&#xc7;" horiz-adv-x="1331" d="M96 717q0 166 46 304t127 232.5t195 146.5t247 52q190 0 330 -105t204 -313h-96q-66 162 -169 243t-269 81q-111 2 -205.5 -39t-164 -120.5t-109 -203t-39.5 -278.5q0 -288 141.5 -464.5t374.5 -176.5q160 0 277 85.5t169 264.5h96q-48 -197 -183.5 -311.5t-313.5 -126.5 l-23 -113q88 -5 135.5 -62.5t24.5 -140.5q-21 -79 -85 -119.5t-146 -31.5t-154 65l33 78q36 -42 93 -57t109 5.5t70 74.5q13 46 -13 79t-68 44.5t-83 3.5l33 172q-123 2 -229.5 53.5t-185.5 143t-124 229.5t-45 305z" />
<glyph unicode="&#xc8;" horiz-adv-x="993" d="M172 0v1434h702v-91h-606v-557h582v-92h-582v-600h615v-94h-711zM383 1798v10l82 41l145 -268v-6h-82z" />
<glyph unicode="&#xc9;" horiz-adv-x="993" d="M172 0v1434h702v-91h-606v-557h582v-92h-582v-600h615v-94h-711zM467 1569v6l147 268l82 -41v-10l-145 -223h-84z" />
<glyph unicode="&#xca;" horiz-adv-x="993" d="M172 0v1434h702v-91h-606v-557h582v-92h-582v-600h615v-94h-711zM258 1579v10l229 250h91l227 -252v-8h-96l-177 197l-178 -197h-96z" />
<glyph unicode="&#xcb;" horiz-adv-x="993" d="M172 0v1434h702v-91h-606v-557h582v-92h-582v-600h615v-94h-711zM276 1655q0 32 20 53t50 21t50 -20t20 -54q0 -30 -20 -50t-50 -20t-50 20t-20 50zM655 1655q0 32 20 53t50 21t50 -20t20 -54q0 -30 -20 -50t-50 -20t-50 20t-20 50z" />
<glyph unicode="&#xcc;" horiz-adv-x="665" d="M55 0v84h228v1266h-211v84h520v-84h-213v-1266h227v-84h-551zM160 1780v10l82 41l145 -268v-7h-82z" />
<glyph unicode="&#xcd;" horiz-adv-x="665" d="M55 0v84h228v1266h-211v84h520v-84h-213v-1266h227v-84h-551zM272 1559v6l148 268l82 -41v-10l-146 -223h-84z" />
<glyph unicode="&#xce;" horiz-adv-x="665" d="M55 0v84h228v1266h-211v84h520v-84h-213v-1266h227v-84h-551zM74 1536v10l223 240h88l219 -242v-8h-92l-172 188l-172 -188h-94z" />
<glyph unicode="&#xcf;" horiz-adv-x="665" d="M55 0v84h228v1266h-211v84h520v-84h-213v-1266h227v-84h-551zM111 1626q0 32 20 53t49 21q30 0 50 -20t20 -54q0 -30 -20 -50t-50 -20t-49.5 20t-19.5 50zM416 1626q0 32 20 53t49 21q30 0 50 -20t20 -54q0 -30 -20 -50t-50 -20t-49.5 20t-19.5 50z" />
<glyph unicode="&#xd0;" horiz-adv-x="1282" d="M16 666v82h158v686h422q264 0 427 -192.5t163 -524.5q0 -201 -69 -362.5t-204.5 -258t-316.5 -96.5h-422v666h-158zM270 94h320q108 0 199.5 41.5t158.5 119t104.5 195.5t37.5 265q0 186 -59.5 327.5t-173 220t-265.5 78.5h-322v-593h230v-82h-230v-572z" />
<glyph unicode="&#xd1;" horiz-adv-x="1296" d="M172 0v1436h37l829 -1203l-8 517v686h96v-1436h-30l-834 1202l6 -481v-721h-96zM389 1589q40 85 109 104.5t135 -24.5q12 -5 31 -18.5t30 -18.5q52 -29 83 -17.5t63 66.5l59 -32q-37 -72 -93 -103.5t-120 0.5q-20 9 -80 49q-50 34 -85.5 26.5t-69.5 -67.5z" />
<glyph unicode="&#xd2;" horiz-adv-x="1425" d="M96 717q0 171 47.5 311.5t130.5 233t195 142.5t242 50q132 0 245 -50t196 -142.5t130 -233t47 -311.5q0 -344 -169.5 -540.5t-448.5 -196.5q-131 0 -243.5 50t-195 142.5t-129.5 233t-47 311.5zM193 717q0 -299 143.5 -471t374.5 -172q234 0 378 168.5t144 474.5 q0 302 -143 472.5t-377 170.5q-230 0 -375 -173.5t-145 -469.5zM543 1788l78 41l149 -254v-6h-80z" />
<glyph unicode="&#xd3;" horiz-adv-x="1425" d="M96 717q0 171 47.5 311.5t130.5 233t195 142.5t242 50q132 0 245 -50t196 -142.5t130 -233t47 -311.5q0 -344 -169.5 -540.5t-448.5 -196.5q-131 0 -243.5 50t-195 142.5t-129.5 233t-47 311.5zM193 717q0 -299 143.5 -471t374.5 -172q234 0 378 168.5t144 474.5 q0 302 -143 472.5t-377 170.5q-230 0 -375 -173.5t-145 -469.5zM668 1571v6l149 254l78 -41l-147 -219h-80z" />
<glyph unicode="&#xd4;" horiz-adv-x="1425" d="M96 717q0 171 47.5 311.5t130.5 233t195 142.5t242 50q132 0 245 -50t196 -142.5t130 -233t47 -311.5q0 -344 -169.5 -540.5t-448.5 -196.5q-131 0 -243.5 50t-195 142.5t-129.5 233t-47 311.5zM193 717q0 -299 143.5 -471t374.5 -172q234 0 378 168.5t144 474.5 q0 302 -143 472.5t-377 170.5q-230 0 -375 -173.5t-145 -469.5zM438 1565v10l240 254h94l238 -256v-8h-99l-186 200l-186 -200h-101z" />
<glyph unicode="&#xd5;" horiz-adv-x="1425" d="M96 717q0 171 47.5 311.5t130.5 233t195 142.5t242 50q132 0 245 -50t196 -142.5t130 -233t47 -311.5q0 -344 -169.5 -540.5t-448.5 -196.5q-131 0 -243.5 50t-195 142.5t-129.5 233t-47 311.5zM193 717q0 -299 143.5 -471t374.5 -172q234 0 378 168.5t144 474.5 q0 302 -143 472.5t-377 170.5q-230 0 -375 -173.5t-145 -469.5zM471 1642q27 59 68 87.5t87 26t93 -31.5q11 -5 30 -18t31 -18q52 -30 83.5 -18t64.5 69l59 -33q-32 -73 -92 -106.5t-123 -2.5q-16 7 -42 26t-40 26q-50 37 -87 28.5t-71 -69.5z" />
<glyph unicode="&#xd6;" horiz-adv-x="1425" d="M96 717q0 171 47.5 311.5t130.5 233t195 142.5t242 50q132 0 245 -50t196 -142.5t130 -233t47 -311.5q0 -344 -169.5 -540.5t-448.5 -196.5q-131 0 -243.5 50t-195 142.5t-129.5 233t-47 311.5zM193 717q0 -299 143.5 -471t374.5 -172q234 0 378 168.5t144 474.5 q0 302 -143 472.5t-377 170.5q-230 0 -375 -173.5t-145 -469.5zM463 1673q0 32 19 53t50 21q30 0 50 -20t20 -54q0 -30 -20 -49.5t-50 -19.5q-32 0 -50.5 19.5t-18.5 49.5zM838 1673q0 32 19 53t50 21q30 0 50 -20t20 -54q0 -30 -20 -49.5t-50 -19.5q-32 0 -50.5 19.5 t-18.5 49.5z" />
<glyph unicode="&#xd7;" horiz-adv-x="751" d="M123 946l53 55l203 -235l196 235l56 -55l-201 -235l197 -230l-54 -57l-198 229l-195 -231l-53 55l201 232z" />
<glyph unicode="&#xd8;" horiz-adv-x="1427" d="M98 717q0 171 47.5 311.5t130.5 233.5t195 143.5t242 50.5q161 0 295 -76l98 195h82v-8l-117 -230q125 -95 192.5 -251.5t67.5 -368.5q0 -344 -169.5 -542t-448.5 -198q-156 0 -291 72l-103 -203h-83v11l120 237q-124 94 -191 252t-67 371zM195 717q0 -182 53.5 -318 t152.5 -217l564 1114q-111 66 -250 66q-229 0 -374.5 -175t-145.5 -470zM465 135q111 -63 248 -63q234 0 378 169.5t144 475.5q0 364 -207 536z" />
<glyph unicode="&#xd9;" horiz-adv-x="1232" d="M160 492v942h96v-940q0 -189 98.5 -302.5t263.5 -113.5q156 0 258.5 108t102.5 308v940h96v-942q0 -229 -123 -369.5t-331 -140.5q-201 0 -331 136t-130 374zM459 1788v10l84 41l145 -268v-6h-84z" />
<glyph unicode="&#xda;" horiz-adv-x="1232" d="M160 492v942h96v-940q0 -189 98.5 -302.5t263.5 -113.5q156 0 258.5 108t102.5 308v940h96v-942q0 -229 -123 -369.5t-331 -140.5q-201 0 -331 136t-130 374zM553 1581v6l139 256l84 -41v-10l-139 -211h-84z" />
<glyph unicode="&#xdb;" horiz-adv-x="1232" d="M160 492v942h96v-940q0 -189 98.5 -302.5t263.5 -113.5q156 0 258.5 108t102.5 308v940h96v-942q0 -229 -123 -369.5t-331 -140.5q-201 0 -331 136t-130 374zM338 1575v10l237 254h99l235 -256v-8h-98l-184 201l-191 -201h-98z" />
<glyph unicode="&#xdc;" horiz-adv-x="1232" d="M160 492v942h96v-940q0 -189 98.5 -302.5t263.5 -113.5q156 0 258.5 108t102.5 308v940h96v-942q0 -229 -123 -369.5t-331 -140.5q-201 0 -331 136t-130 374zM360 1651q0 32 21 53.5t51 21.5t51 -20.5t21 -54.5q0 -30 -21 -51t-51 -21t-51 21t-21 51zM750 1651 q0 32 20.5 53.5t50.5 21.5t51 -20.5t21 -54.5q0 -30 -21 -51t-51 -21t-50.5 21t-20.5 51z" />
<glyph unicode="&#xdd;" horiz-adv-x="1122" d="M63 1421v13h107l195 -365l194 -362h2l195 362l194 365h105v-15l-447 -823v-596h-96v596zM510 1532v6l145 268l82 -41v-10l-145 -223h-82z" />
<glyph unicode="&#xde;" horiz-adv-x="1138" d="M172 0v1434h98v-234h371q88 0 164 -29t135 -85.5t93 -149t34 -211.5q0 -216 -119.5 -344.5t-306.5 -128.5h-371v-252h-98zM268 340h373q70 0 128.5 21t106 65t74.5 121t27 180q0 186 -92.5 286.5t-243.5 100.5h-373v-774z" />
<glyph unicode="&#xdf;" horiz-adv-x="1038" d="M162 2v1030q0 452 436 422q23 -2 46 -5t49 -9.5t44 -10.5t47 -13.5t39.5 -12.5t40.5 -13.5t33 -11.5v-37l-309 -483q94 19 179 -34t136 -158.5t51 -233.5q0 -182 -72.5 -296.5t-199.5 -147.5q-102 -27 -233 10v82q80 -29 176 -14q233 39 233 366q0 153 -79 248.5 t-199 95.5q-65 0 -115 -20v51l317 516q-104 49 -243 49q-62 0 -109.5 -14t-90 -49.5t-65 -104.5t-22.5 -170v-1032h-90z" />
<glyph unicode="&#xe0;" d="M33 0v12l571 1426h43l565 -1426v-12h-100l-162 414h-653l-162 -414h-102zM330 504h588l-293 764zM440 1782v10l82 41l148 -268v-6h-84z" />
<glyph unicode="&#xe1;" d="M33 0v12l571 1426h43l565 -1426v-12h-100l-162 414h-653l-162 -414h-102zM330 504h588l-293 764zM571 1554v7l146 268l82 -41v-10l-146 -224h-82z" />
<glyph unicode="&#xe2;" d="M33 0v12l571 1426h43l565 -1426v-12h-100l-162 414h-653l-162 -414h-102zM330 504h588l-293 764zM338 1532v10l240 254h94l237 -256v-8h-98l-184 201l-189 -201h-100z" />
<glyph unicode="&#xe3;" d="M33 0v12l571 1426h43l565 -1426v-12h-100l-162 414h-653l-162 -414h-102zM330 504h588l-293 764zM365 1591q48 86 106 111q35 19 86 11t92 -44q53 -34 72 -38q10 -2 20 -1q47 3 88 80q27 -12 54 -33q-34 -73 -88 -104q-25 -14 -53 -18t-62 6t-64 36q-54 42 -98 39 q-53 -3 -94 -80l-37 23q-10 6 -22 12z" />
<glyph unicode="&#xe4;" d="M33 0v12l571 1426h43l565 -1426v-12h-100l-162 414h-653l-162 -414h-102zM330 504h588l-293 764zM369 1632q0 29 18.5 48.5t44.5 19.5q27 0 45.5 -19t18.5 -49q0 -28 -18.5 -45.5t-45.5 -17.5q-28 0 -45.5 18.5t-17.5 44.5zM756 1632q0 30 17 49t46 19q27 0 45.5 -19 t18.5 -49q0 -28 -19 -45.5t-45 -17.5q-28 0 -45.5 18.5t-17.5 44.5z" />
<glyph unicode="&#xe5;" d="M33 0v12l565 1413q-73 7 -122.5 59t-49.5 148q0 109 67 166.5t154 44.5q72 -13 121 -68t49 -143q0 -89 -49 -144t-117 -61l561 -1415v-12h-96l-164 414h-655l-164 -414h-100zM330 504h590l-295 762zM496 1632q0 -62 32.5 -96t83.5 -39q55 -5 95.5 31t40.5 104 q0 64 -38 100.5t-89 36.5t-88 -36.5t-37 -100.5z" />
<glyph unicode="&#xe6;" horiz-adv-x="1427" d="M16 0v14l643 1420h658v-88h-522v-558h497v-88h-497v-612h530v-88h-620v442h-394l-196 -442h-99zM346 530h359l2 805z" />
<glyph unicode="&#xe7;" horiz-adv-x="1331" d="M96 717q0 166 46 304t127 232.5t195 146.5t247 52q190 0 330 -105t204 -313h-96q-66 162 -169 243t-269 81q-111 2 -205.5 -39t-164 -120.5t-109 -203t-39.5 -278.5q0 -288 141.5 -464.5t374.5 -176.5q160 0 277 85.5t169 264.5h96q-48 -197 -183.5 -311.5t-313.5 -126.5 l-23 -113q88 -5 135.5 -62.5t24.5 -140.5q-21 -79 -85 -119.5t-146 -31.5t-154 65l33 78q36 -42 93 -57t109 5.5t70 74.5q13 46 -13 79t-68 44.5t-83 3.5l33 172q-123 2 -229.5 53.5t-185.5 143t-124 229.5t-45 305z" />
<glyph unicode="&#xe8;" horiz-adv-x="993" d="M172 0v1434h702v-91h-606v-557h582v-92h-582v-600h615v-94h-711zM383 1798v10l82 41l145 -268v-6h-82z" />
<glyph unicode="&#xe9;" horiz-adv-x="993" d="M172 0v1434h702v-91h-606v-557h582v-92h-582v-600h615v-94h-711zM467 1569v6l147 268l82 -41v-10l-145 -223h-84z" />
<glyph unicode="&#xea;" horiz-adv-x="993" d="M172 0v1434h702v-91h-606v-557h582v-92h-582v-600h615v-94h-711zM258 1579v10l229 250h91l227 -252v-8h-96l-177 197l-178 -197h-96z" />
<glyph unicode="&#xeb;" horiz-adv-x="993" d="M172 0v1434h702v-91h-606v-557h582v-92h-582v-600h615v-94h-711zM276 1655q0 32 20 53t50 21t50 -20t20 -54q0 -30 -20 -50t-50 -20t-50 20t-20 50zM655 1655q0 32 20 53t50 21t50 -20t20 -54q0 -30 -20 -50t-50 -20t-50 20t-20 50z" />
<glyph unicode="&#xec;" horiz-adv-x="665" d="M55 0v84h228v1266h-211v84h520v-84h-213v-1266h227v-84h-551zM160 1780v10l82 41l145 -268v-7h-82z" />
<glyph unicode="&#xed;" horiz-adv-x="665" d="M55 0v84h228v1266h-211v84h520v-84h-213v-1266h227v-84h-551zM272 1559v6l148 268l82 -41v-10l-146 -223h-84z" />
<glyph unicode="&#xee;" horiz-adv-x="665" d="M55 0v84h228v1266h-211v84h520v-84h-213v-1266h227v-84h-551zM74 1536v10l223 240h88l219 -242v-8h-92l-172 188l-172 -188h-94z" />
<glyph unicode="&#xef;" horiz-adv-x="665" d="M55 0v84h228v1266h-211v84h520v-84h-213v-1266h227v-84h-551zM111 1626q0 32 20 53t49 21q30 0 50 -20t20 -54q0 -30 -20 -50t-50 -20t-49.5 20t-19.5 50zM416 1626q0 32 20 53t49 21q30 0 50 -20t20 -54q0 -30 -20 -50t-50 -20t-49.5 20t-19.5 50z" />
<glyph unicode="&#xf0;" horiz-adv-x="1306" d="M41 666v82h158v686h422q264 0 426.5 -192.5t162.5 -524.5q0 -150 -40.5 -280.5t-114.5 -227.5t-186 -153t-248 -56h-422v666h-158zM295 94h319q108 0 199.5 41.5t158.5 119t104.5 195.5t37.5 265q0 186 -59.5 327.5t-173 220t-265.5 78.5h-321v-593h229v-82h-229v-572z " />
<glyph unicode="&#xf1;" horiz-adv-x="1296" d="M172 0v1436h37l829 -1203l-8 517v686h96v-1436h-30l-834 1202l6 -481v-721h-96zM389 1589q40 85 109 104.5t135 -24.5q12 -5 31 -18.5t30 -18.5q52 -29 83 -17.5t63 66.5l59 -32q-37 -72 -93 -103.5t-120 0.5q-20 9 -80 49q-50 34 -85.5 26.5t-69.5 -67.5z" />
<glyph unicode="&#xf2;" horiz-adv-x="1425" d="M96 717q0 171 47.5 311.5t130.5 233t195 142.5t242 50q132 0 245 -50t196 -142.5t130 -233t47 -311.5q0 -344 -169.5 -540.5t-448.5 -196.5q-131 0 -243.5 50t-195 142.5t-129.5 233t-47 311.5zM193 717q0 -299 143.5 -471t374.5 -172q234 0 378 168.5t144 474.5 q0 302 -143 472.5t-377 170.5q-230 0 -375 -173.5t-145 -469.5zM543 1788l78 41l149 -254v-6h-80z" />
<glyph unicode="&#xf3;" horiz-adv-x="1425" d="M96 717q0 171 47.5 311.5t130.5 233t195 142.5t242 50q132 0 245 -50t196 -142.5t130 -233t47 -311.5q0 -344 -169.5 -540.5t-448.5 -196.5q-131 0 -243.5 50t-195 142.5t-129.5 233t-47 311.5zM193 717q0 -299 143.5 -471t374.5 -172q234 0 378 168.5t144 474.5 q0 302 -143 472.5t-377 170.5q-230 0 -375 -173.5t-145 -469.5zM668 1571v6l149 254l78 -41l-147 -219h-80z" />
<glyph unicode="&#xf4;" horiz-adv-x="1425" d="M96 717q0 171 47.5 311.5t130.5 233t195 142.5t242 50q132 0 245 -50t196 -142.5t130 -233t47 -311.5q0 -344 -169.5 -540.5t-448.5 -196.5q-131 0 -243.5 50t-195 142.5t-129.5 233t-47 311.5zM193 717q0 -299 143.5 -471t374.5 -172q234 0 378 168.5t144 474.5 q0 302 -143 472.5t-377 170.5q-230 0 -375 -173.5t-145 -469.5zM438 1565v10l240 254h94l238 -256v-8h-99l-186 200l-186 -200h-101z" />
<glyph unicode="&#xf5;" horiz-adv-x="1425" d="M96 717q0 171 47.5 311.5t130.5 233t195 142.5t242 50q132 0 245 -50t196 -142.5t130 -233t47 -311.5q0 -344 -169.5 -540.5t-448.5 -196.5q-131 0 -243.5 50t-195 142.5t-129.5 233t-47 311.5zM193 717q0 -299 143.5 -471t374.5 -172q234 0 378 168.5t144 474.5 q0 302 -143 472.5t-377 170.5q-230 0 -375 -173.5t-145 -469.5zM471 1642q27 59 68 87.5t87 26t93 -31.5q11 -5 30 -18t31 -18q52 -30 83.5 -18t64.5 69l59 -33q-32 -73 -92 -106.5t-123 -2.5q-16 7 -42 26t-40 26q-50 37 -87 28.5t-71 -69.5z" />
<glyph unicode="&#xf6;" horiz-adv-x="1425" d="M96 717q0 171 47.5 311.5t130.5 233t195 142.5t242 50q132 0 245 -50t196 -142.5t130 -233t47 -311.5q0 -344 -169.5 -540.5t-448.5 -196.5q-131 0 -243.5 50t-195 142.5t-129.5 233t-47 311.5zM193 717q0 -299 143.5 -471t374.5 -172q234 0 378 168.5t144 474.5 q0 302 -143 472.5t-377 170.5q-230 0 -375 -173.5t-145 -469.5zM463 1673q0 32 19 53t50 21q30 0 50 -20t20 -54q0 -30 -20 -49.5t-50 -19.5q-32 0 -50.5 19.5t-18.5 49.5zM838 1673q0 32 19 53t50 21q30 0 50 -20t20 -54q0 -30 -20 -49.5t-50 -19.5q-32 0 -50.5 19.5 t-18.5 49.5z" />
<glyph unicode="&#xf7;" horiz-adv-x="931" d="M143 690v88h645v-88h-645zM401 428q0 28 18 46t44 18q27 0 45 -17t18 -47q0 -28 -18 -44.5t-45 -16.5t-44.5 16.5t-17.5 44.5zM401 1038q0 28 18 46t44 18q27 0 45 -17t18 -47q0 -28 -18 -44.5t-45 -16.5t-44.5 16.5t-17.5 44.5z" />
<glyph unicode="&#xf8;" horiz-adv-x="1425" d="M96 717q0 171 47.5 311.5t130.5 233.5t195 143.5t242 50.5q161 0 295 -76l98 195h82v-8l-117 -230q125 -95 192.5 -251.5t67.5 -368.5q0 -344 -169.5 -542t-448.5 -198q-156 0 -291 72l-103 -203h-84v11l121 237q-124 94 -191 252t-67 371zM193 717q0 -182 53.5 -318 t152.5 -217l564 1114q-111 66 -250 66q-229 0 -374.5 -175t-145.5 -470zM463 135q111 -63 248 -63q234 0 378 169.5t144 475.5q0 364 -207 536z" />
<glyph unicode="&#xf9;" horiz-adv-x="1232" d="M160 492v942h96v-940q0 -189 98.5 -302.5t263.5 -113.5q156 0 258.5 108t102.5 308v940h96v-942q0 -229 -123 -369.5t-331 -140.5q-201 0 -331 136t-130 374zM459 1788v10l84 41l145 -268v-6h-84z" />
<glyph unicode="&#xfa;" horiz-adv-x="1232" d="M160 492v942h96v-940q0 -189 98.5 -302.5t263.5 -113.5q156 0 258.5 108t102.5 308v940h96v-942q0 -229 -123 -369.5t-331 -140.5q-201 0 -331 136t-130 374zM553 1581v6l139 256l84 -41v-10l-139 -211h-84z" />
<glyph unicode="&#xfb;" horiz-adv-x="1232" d="M160 492v942h96v-940q0 -189 98.5 -302.5t263.5 -113.5q156 0 258.5 108t102.5 308v940h96v-942q0 -229 -123 -369.5t-331 -140.5q-201 0 -331 136t-130 374zM338 1575v10l237 254h99l235 -256v-8h-98l-184 201l-191 -201h-98z" />
<glyph unicode="&#xfc;" horiz-adv-x="1232" d="M160 492v942h96v-940q0 -189 98.5 -302.5t263.5 -113.5q156 0 258.5 108t102.5 308v940h96v-942q0 -229 -123 -369.5t-331 -140.5q-201 0 -331 136t-130 374zM360 1651q0 32 21 53.5t51 21.5t51 -20.5t21 -54.5q0 -30 -21 -51t-51 -21t-51 21t-21 51zM750 1651 q0 32 20.5 53.5t50.5 21.5t51 -20.5t21 -54.5q0 -30 -21 -51t-51 -21t-50.5 21t-20.5 51z" />
<glyph unicode="&#xfd;" horiz-adv-x="1122" d="M63 1421v13h107l195 -365l194 -362h2l195 362l194 365h105v-15l-447 -823v-596h-96v596zM510 1532v6l145 268l82 -41v-10l-145 -223h-82z" />
<glyph unicode="&#xfe;" horiz-adv-x="1138" d="M172 0v1434h98v-234h371q88 0 164 -29t135 -85.5t93 -149t34 -211.5q0 -216 -119.5 -344.5t-306.5 -128.5h-371v-252h-98zM268 340h373q70 0 128.5 21t106 65t74.5 121t27 180q0 186 -92.5 286.5t-243.5 100.5h-373v-774z" />
<glyph unicode="&#xff;" horiz-adv-x="1122" d="M63 1421v13h105l194 -365l197 -379h2l197 379l194 365h103v-15l-447 -823v-596h-96v596zM309 1616q0 32 19.5 53t50.5 21q30 0 50 -20t20 -54q0 -30 -20 -50t-50 -20q-32 0 -51 20t-19 50zM684 1616q0 32 19.5 53t50.5 21q30 0 49.5 -20t19.5 -54q0 -30 -19.5 -50 t-49.5 -20q-32 0 -51 20t-19 50z" />
<glyph unicode="&#x152;" horiz-adv-x="1622" d="M98 715q0 349 167 542t460 193q119 0 193 -18h591v-86h-528v-558h504v-86h-504v-612h537v-90h-609q-94 -27 -192 -27q-137 0 -249.5 47t-195.5 138t-128.5 233t-45.5 324zM195 715q0 -303 138.5 -478.5t387.5 -175.5q91 0 170 25v1264q-49 12 -166 12q-244 0 -387 -163 t-143 -484z" />
<glyph unicode="&#x153;" horiz-adv-x="1622" d="M98 715q0 349 167 542t460 193q119 0 193 -18h591v-86h-528v-558h504v-86h-504v-612h537v-90h-609q-94 -27 -192 -27q-137 0 -249.5 47t-195.5 138t-128.5 233t-45.5 324zM195 715q0 -303 138.5 -478.5t387.5 -175.5q91 0 170 25v1264q-49 12 -166 12q-244 0 -387 -163 t-143 -484z" />
<glyph unicode="&#x178;" horiz-adv-x="1122" d="M63 1421v13h105l194 -365l197 -379h2l197 379l194 365h103v-15l-447 -823v-596h-96v596zM309 1616q0 32 19.5 53t50.5 21q30 0 50 -20t20 -54q0 -30 -20 -50t-50 -20q-32 0 -51 20t-19 50zM684 1616q0 32 19.5 53t50.5 21q30 0 49.5 -20t19.5 -54q0 -30 -19.5 -50 t-49.5 -20q-32 0 -51 20t-19 50z" />
<glyph unicode="&#x2c6;" horiz-adv-x="884" d="M152 1176v10l239 254h94l238 -256v-8h-98l-187 200l-186 -200h-100z" />
<glyph unicode="&#x2dc;" horiz-adv-x="755" d="M135 1348q27 55 66.5 80.5t83 23t88.5 -28.5q11 -5 29 -17t30 -17q51 -28 80 -17t61 64l58 -31q-31 -67 -89 -97t-118 -1q-18 8 -46 26.5t-32 20.5q-48 33 -82.5 26t-68.5 -65z" />
<glyph unicode="&#x2000;" horiz-adv-x="924" />
<glyph unicode="&#x2001;" horiz-adv-x="1849" />
<glyph unicode="&#x2002;" horiz-adv-x="924" />
<glyph unicode="&#x2003;" horiz-adv-x="1849" />
<glyph unicode="&#x2004;" horiz-adv-x="616" />
<glyph unicode="&#x2005;" horiz-adv-x="462" />
<glyph unicode="&#x2006;" horiz-adv-x="308" />
<glyph unicode="&#x2007;" horiz-adv-x="308" />
<glyph unicode="&#x2008;" horiz-adv-x="231" />
<glyph unicode="&#x2009;" horiz-adv-x="369" />
<glyph unicode="&#x200a;" horiz-adv-x="102" />
<glyph unicode="&#x2010;" horiz-adv-x="794" d="M123 641v86h549v-86h-549z" />
<glyph unicode="&#x2011;" horiz-adv-x="794" d="M123 641v86h549v-86h-549z" />
<glyph unicode="&#x2012;" horiz-adv-x="794" d="M123 641v86h549v-86h-549z" />
<glyph unicode="&#x2013;" horiz-adv-x="946" d="M123 641v86h700v-86h-700z" />
<glyph unicode="&#x2014;" horiz-adv-x="1099" d="M123 639v88h854v-88h-854z" />
<glyph unicode="&#x2018;" horiz-adv-x="360" d="M111 1241l55 195h67l-34 -142q21 -5 34 -22t13 -43q0 -46 -37 -62.5t-71.5 6t-26.5 68.5z" />
<glyph unicode="&#x2019;" horiz-adv-x="358" d="M119 1376q0 46 37 62.5t71.5 -6t26.5 -68.5l-55 -195h-68l35 142q-21 5 -34 22t-13 43z" />
<glyph unicode="&#x201a;" horiz-adv-x="387" d="M127 41q0 46 37 62.5t71.5 -6t26.5 -68.5l-61 -211h-66l39 157q-21 5 -34 22.5t-13 43.5z" />
<glyph unicode="&#x201c;" horiz-adv-x="602" d="M111 1241l55 195h67l-34 -142q21 -5 34 -22t13 -43q0 -46 -37 -62.5t-71.5 6t-26.5 68.5zM354 1241l56 195h67l-35 -142q21 -5 34 -22t13 -43q0 -46 -37 -62.5t-71.5 6t-26.5 68.5z" />
<glyph unicode="&#x201d;" horiz-adv-x="600" d="M119 1372q0 46 37 62.5t71.5 -6t26.5 -68.5l-55 -195h-68l35 142q-21 5 -34 22t-13 43zM362 1372q0 46 37.5 62.5t72 -6t26.5 -68.5l-56 -195h-67l35 142q-21 5 -34.5 22.5t-13.5 42.5z" />
<glyph unicode="&#x201e;" horiz-adv-x="647" d="M127 41q0 46 37 62.5t71.5 -6t26.5 -68.5l-61 -211h-66l39 157q-21 5 -34 22.5t-13 43.5zM387 41q0 46 37 62.5t71.5 -6t26.5 -68.5l-61 -211h-66l39 157q-21 5 -34 22.5t-13 43.5z" />
<glyph unicode="&#x2022;" horiz-adv-x="641" d="M170 731q0 70 43 114t106 44q62 0 107 -44t45 -114q0 -43 -16.5 -76t-43 -50.5t-59 -25.5t-64.5 0t-58.5 25.5t-43 50.5t-16.5 76z" />
<glyph unicode="&#x2026;" horiz-adv-x="1032" d="M123 55q0 31 18 49.5t47 18.5q27 0 47.5 -19t20.5 -49t-20.5 -48.5t-47.5 -18.5t-46 19t-19 48zM444 55q0 31 18.5 49.5t47.5 18.5t48.5 -19.5t19.5 -48.5q0 -30 -20.5 -48.5t-47.5 -18.5q-26 0 -46 19.5t-20 47.5zM774 55q0 31 18.5 49.5t47.5 18.5t48 -19.5t19 -48.5 q0 -30 -18.5 -48.5t-48.5 -18.5q-29 0 -47.5 19t-18.5 48z" />
<glyph unicode="&#x202f;" horiz-adv-x="369" />
<glyph unicode="&#x2039;" horiz-adv-x="509" d="M96 709l223 436l72 -25l-184 -411l184 -408l-72 -27z" />
<glyph unicode="&#x203a;" horiz-adv-x="505" d="M117 301l186 408l-186 411l71 25l224 -436l-224 -435z" />
<glyph unicode="&#x205f;" horiz-adv-x="462" />
<glyph unicode="&#x20ac;" horiz-adv-x="1134" d="M78 522v80h135q-12 114 0 232h-135v79h149q50 243 208.5 390t381.5 147q103 0 201 -39l-29 -80q-87 35 -170 35q-189 0 -319 -120.5t-178 -332.5h495l-26 -79h-488q-8 -41 -8 -95q0 -74 8 -137h428l-24 -80h-390q47 -203 175 -328.5t323 -125.5q110 0 213 53l31 -82 q-111 -57 -246 -57q-234 0 -389 140t-199 400h-147z" />
<glyph unicode="&#x2122;" horiz-adv-x="1302" d="M106 1370v66h433v-66h-181v-506h-67v506h-185zM633 864v572h39l221 -324l221 324h41v-572h-72v414l-186 -279h-8l-184 279v-414h-72z" />
<glyph unicode="&#x25fc;" horiz-adv-x="1433" d="M0 0v1434h1434v-1434h-1434z" />
</font>
</defs>
</svg>
