<?xml version="1.0" standalone="no"?>
<!DOCTYPE svg PUBLIC "-//W3C//DTD SVG 1.1//EN" "http://www.w3.org/Graphics/SVG/1.1/DTD/svg11.dtd" >
<svg xmlns="http://www.w3.org/2000/svg">
<metadata></metadata>
<defs>
<font id="intro_bold_capsregular" horiz-adv-x="1433" >
<font-face units-per-em="2048" ascent="1536" descent="-512" />
<missing-glyph horiz-adv-x="501" />
<glyph horiz-adv-x="0" />
<glyph horiz-adv-x="682" />
<glyph unicode=" "  horiz-adv-x="501" />
<glyph unicode="&#x09;" horiz-adv-x="501" />
<glyph unicode="&#xa0;" horiz-adv-x="501" />
<glyph unicode="!" horiz-adv-x="612" d="M137 1436h334l-18 -1053h-291zM139 127q0 70 48.5 113t119.5 43q73 0 120.5 -42.5t47.5 -113.5q0 -69 -47.5 -112.5t-120.5 -43.5q-70 0 -119 44t-49 112z" />
<glyph unicode="&#x22;" horiz-adv-x="860" d="M139 983v451h248l-37 -451h-211zM496 983v451h245l-34 -451h-211z" />
<glyph unicode="#" horiz-adv-x="1456" d="M84 367v200h231l39 252h-207v203h238l61 410h254l-59 -410h295l61 410h254l-59 -410h172v-203h-201l-37 -252h172v-200h-202l-52 -367h-264l56 367h-289l-51 -367h-267l56 367h-201zM565 561h307l41 266h-309z" />
<glyph unicode="$" horiz-adv-x="1318" d="M82 424h295q4 -77 64.5 -122.5t146.5 -53.5v362q-486 53 -486 402q0 103 40 185.5t108.5 136.5t154 85.5t183.5 40.5v139h151v-143q92 -10 171.5 -40.5t144 -81t102 -128.5t37.5 -174h-287q-4 68 -53.5 108.5t-114.5 45.5v-342q89 -11 157.5 -27t136.5 -47.5t112 -76.5 t71 -114.5t27 -160.5q0 -78 -28 -146.5t-76 -119.5t-112.5 -89.5t-137.5 -60.5t-150 -29v-141h-151v139q-101 10 -189.5 43t-160.5 87t-114 137.5t-42 185.5zM406 1018q0 -30 10 -53.5t25.5 -39t40.5 -28t49 -20t57 -15.5v324q-78 -6 -130 -49.5t-52 -118.5zM739 248 q88 6 142.5 52t54.5 118q0 79 -51 117.5t-146 58.5v-346z" />
<glyph unicode="%" horiz-adv-x="1886" d="M72 1098q0 88 31.5 160t83.5 116t118 67.5t134.5 23.5t134.5 -23.5t118 -67.5t83.5 -116t31.5 -160t-31.5 -160t-83.5 -116t-118 -67.5t-134.5 -23.5t-134.5 23.5t-118 67.5t-83.5 116t-31.5 160zM301 1098q0 -45 15.5 -80.5t40 -53.5t54 -26.5t59.5 0t54.5 26.5t40 53.5 t15.5 80.5q0 46 -15.5 82t-40 54.5t-54.5 27.5t-59.5 0t-54 -27.5t-40 -54.5t-15.5 -82zM453 0l702 1432h279l-705 -1432h-276zM1081 330q0 116 54.5 201.5t136.5 124t177 38.5t177 -38.5t136.5 -124t54.5 -201.5q0 -88 -31.5 -160t-83.5 -116t-118 -67.5t-135 -23.5 t-135 23.5t-118 67.5t-83.5 116t-31.5 160zM1309 330q0 -46 15.5 -82t40 -54.5t54 -27.5t59 0t54 27.5t40 54.5t15.5 82q0 52 -20.5 90.5t-51.5 56t-67 17.5t-67 -17.5t-51.5 -56t-20.5 -90.5z" />
<glyph unicode="&#x26;" horiz-adv-x="1331" d="M98 440q0 124 60.5 221.5t169.5 151.5q-64 40 -100.5 106.5t-41.5 143.5q-6 93 31 169t102.5 124t149 74t174.5 26q126 0 224 -40.5t158 -126t60 -204.5h-251q0 55 -52 88t-131 33q-75 0 -128.5 -37t-53.5 -106q0 -83 58 -119.5t171 -36.5v-233h-67q-105 -4 -169.5 -66.5 t-64.5 -156.5q0 -93 66 -156.5t174 -63.5q105 0 169 61.5t68 170.5v455h388v-232h-140v-221q0 -227 -128.5 -357.5t-356.5 -130.5q-133 0 -239 38.5t-171 104t-98 147.5t-31 173z" />
<glyph unicode="'" horiz-adv-x="505" d="M137 987v447h252l-35 -447h-217z" />
<glyph unicode="(" horiz-adv-x="724" d="M74.5 577.5q-0.5 164.5 32.5 328t96 301.5t163.5 246.5t227.5 164.5l90 -172q-103 -59 -176.5 -197t-106.5 -308t-32.5 -363.5t34.5 -363.5t107 -308t174 -197l-90 -172q-125 56 -225.5 164.5t-163.5 246.5t-96.5 301.5t-34 328z" />
<glyph unicode=")" horiz-adv-x="724" d="M41 -291q100 58 173 195.5t107 308.5t35 364.5t-32.5 364.5t-106.5 308.5t-176 195.5l90 172q125 -56 225.5 -164.5t163 -246t96 -301t34 -328.5t-32.5 -328.5t-96 -301t-163 -246.5t-227 -165z" />
<glyph unicode="*" horiz-adv-x="897" d="M94 1151l62 197l202 -76l-18 203h217l-18 -203l196 78l66 -195l-205 -55l149 -168l-176 -129l-120 178l-119 -178l-174 131l149 164z" />
<glyph unicode="+" horiz-adv-x="989" d="M109 633v235h266v262h237v-262h269v-235h-269v-264h-237v264h-266z" />
<glyph unicode="," horiz-adv-x="565" d="M115 123q0 71 47.5 114.5t120.5 43.5q57 0 99.5 -28.5t59.5 -78.5q9 -21 9 -53q0 -36 -15 -66l-84 -260h-168l49 176q-118 40 -118 152z" />
<glyph unicode="-" horiz-adv-x="964" d="M125 559v246h715v-246h-715z" />
<glyph unicode="." horiz-adv-x="569" d="M115 125q0 72 48.5 116t121.5 44t121.5 -44t48.5 -116q0 -68 -48.5 -112t-121.5 -44t-121.5 44t-48.5 112z" />
<glyph unicode="/" horiz-adv-x="1101" d="M57 2l693 1432h294l-692 -1432h-295z" />
<glyph unicode="0" horiz-adv-x="1335" d="M133 465v500q0 150 72.5 263.5t193.5 171.5t271 58q148 0 267.5 -58t192 -171.5t72.5 -263.5v-500q0 -151 -72.5 -265t-192 -171.5t-267.5 -57.5q-112 0 -209.5 34t-170.5 96t-115 156t-42 208zM422 547q0 -63 6 -115q10 -92 75.5 -142t166.5 -50q97 0 163 50.5t76 141.5 q6 53 6 115v334q0 61 -6 116q-10 94 -75.5 143.5t-163.5 49.5q-101 0 -166.5 -49.5t-75.5 -143.5q-6 -55 -6 -116v-334z" />
<glyph unicode="1" horiz-adv-x="935" d="M98 0v236h242v958h-213v240h506v-1198h248v-236h-783z" />
<glyph unicode="2" horiz-adv-x="1112" d="M88 0v66l508 712q102 144 109 238q4 84 -43 131t-115 47q-73 0 -125.5 -43t-52.5 -139h-263q0 210 119 327t330 117q99 0 180.5 -32.5t134.5 -87.5t80.5 -132t24.5 -163t-39.5 -183t-106.5 -190q-11 -15 -48.5 -71.5t-98 -141.5t-141.5 -189h467v-266h-920z" />
<glyph unicode="3" horiz-adv-x="1183" d="M88 420h268q6 -89 62.5 -135.5t150.5 -46.5q99 0 158 62t61 161q-2 66 -27 114.5t-64.5 75t-92.5 39t-107 11.5t-112 -11v43l264 455h-506v244h912v-43l-312 -500q163 -28 248.5 -147t85.5 -279q0 -96 -34 -184t-96 -156.5t-159 -109t-215 -40.5q-205 0 -341.5 122 t-143.5 325z" />
<glyph unicode="4" horiz-adv-x="1230" d="M49 285v133l629 1016h317v-902h133v-247h-133v-285h-276v285h-670zM395 522h342v273l15 297h-2z" />
<glyph unicode="5" horiz-adv-x="1191" d="M109 416h268q7 -86 63.5 -130t149.5 -44q107 0 160 61t53 158q0 65 -22.5 113.5t-54 77t-87 44.5t-100 22t-116 3t-110.5 -7t-108 -13q-40 -5 -58 -7v740h879v-254h-627v-246q73 12 156 12q543 -11 543 -483q0 -95 -34 -183t-96 -156.5t-158.5 -109.5t-213.5 -41 q-204 0 -339.5 121t-147.5 322z" />
<glyph unicode="6" horiz-adv-x="1243" d="M92 461q0 76 25 158t67 149l416 676h336l-328 -539q36 19 74 19q219 8 355.5 -118t136.5 -345q0 -159 -73 -270t-193.5 -162.5t-276.5 -51.5t-275.5 51.5t-191.5 162.5t-72 270zM391 461q0 -107 64 -165t176 -58t174.5 57.5t62.5 165.5q0 109 -63 169t-174 60 q-112 0 -176 -60t-64 -169z" />
<glyph unicode="7" horiz-adv-x="1097" d="M70 1167v267h1015v-43l-610 -1391h-309l508 1167h-604z" />
<glyph unicode="8" horiz-adv-x="1273" d="M96 440q0 116 58 213.5t163 159.5q-126 105 -129 254q-5 161 118 275t333 114q208 0 329.5 -111.5t121.5 -271.5q0 -153 -132 -262q103 -62 161 -157t59 -210q2 -93 -34 -177.5t-103.5 -149t-172 -102.5t-229.5 -38q-126 0 -230 37.5t-171.5 101.5t-104.5 147.5 t-37 176.5zM397 449q0 -94 67.5 -156t174.5 -62t174.5 64.5t67.5 159.5q0 98 -67 161.5t-175 63.5t-175 -66t-67 -165zM455 1059q0 -68 51.5 -113t132.5 -45t131.5 45.5t50.5 114.5q0 67 -51.5 111.5t-130.5 44.5q-83 0 -133.5 -45t-50.5 -113z" />
<glyph unicode="9" horiz-adv-x="1241" d="M68 985q0 120 41.5 213.5t115.5 151.5t171.5 88t213.5 30q115 0 212.5 -30t171.5 -88t115.5 -151.5t41.5 -213.5q-1 -89 -25 -163t-73 -152l-414 -670h-334l342 541q-44 -19 -80 -19q-225 -8 -362 116t-137 347zM371 985q0 -109 64 -169t175 -60t174.5 60t63.5 169 q0 107 -63 165t-175 58t-175.5 -58t-63.5 -165z" />
<glyph unicode=":" horiz-adv-x="589" d="M125 125q0 72 48.5 116t121.5 44t121.5 -44t48.5 -116q0 -68 -48.5 -112t-121.5 -44t-121.5 44t-48.5 112zM125 762q0 72 48.5 116t121.5 44t121.5 -44t48.5 -116q0 -68 -48.5 -112t-121.5 -44t-121.5 44t-48.5 112z" />
<glyph unicode=";" horiz-adv-x="591" d="M125 762q0 70 49.5 114t120.5 44q73 0 120.5 -43.5t47.5 -114.5q0 -68 -47.5 -111t-120.5 -43q-71 0 -120.5 43t-49.5 111zM127 123q0 71 47.5 114.5t120.5 43.5q57 0 100 -28.5t60 -78.5q8 -19 8 -53q0 -26 -14 -66q-27 -76 -82 -256h-170l49 172q-54 18 -86.5 56.5 t-32.5 95.5z" />
<glyph unicode="&#x3c;" horiz-adv-x="1128" d="M88 600v211l879 373v-252l-549 -227l549 -230v-252z" />
<glyph unicode="=" horiz-adv-x="1124" d="M139 387v238h846v-238h-846zM139 776v238h846v-238h-846z" />
<glyph unicode="&#x3e;" horiz-adv-x="1128" d="M162 223v252l549 230l-549 227v252l878 -373v-211z" />
<glyph unicode="?" horiz-adv-x="1058" d="M70 1026q0 106 35 189t97 135t141.5 80t172.5 30t175.5 -24t146 -77.5t100.5 -134t37 -186.5q0 -52 -18 -101.5t-46 -90.5t-62.5 -82t-69 -83t-62.5 -85.5t-46 -98.5t-18 -114h-270q0 91 20.5 163t54 122t68.5 90t73.5 88.5t59.5 95.5q19 41 19.5 84t-15.5 79t-55 58.5 t-94 22.5q-73 0 -129 -42.5t-63 -117.5h-252zM352 127q0 71 48.5 114.5t121.5 43.5t119.5 -43.5t46.5 -114.5q0 -69 -47 -112.5t-119 -43.5q-73 0 -121.5 44t-48.5 112z" />
<glyph unicode="@" horiz-adv-x="1908" d="M100 496q16 187 96 348t205.5 273.5t294 176.5t355.5 64q400 0 606.5 -231t169.5 -625q-24 -246 -161.5 -395.5t-311.5 -149.5q-90 0 -138 50.5t-42 137.5l2 23q-46 -89 -130.5 -138.5t-185.5 -54.5q-109 0 -193.5 42t-134 114t-70.5 165.5t-11 199.5q16 169 103 290 t218.5 178t292.5 54q96 0 215 -45t193 -107l-54 -577q-12 -125 45 -125q71 0 124.5 102t66.5 236q36 203 -29.5 358t-219 239.5t-372.5 84.5q-203 0 -369.5 -85.5t-270 -242.5t-122.5 -360q-14 -158 22 -288.5t115 -215.5t188 -130t246.5 -38t284.5 67l-16 -165 q-144 -50 -281 -57t-253 24.5t-212 102t-159.5 171t-92 236.5t-14.5 293zM737 496q-5 -73 10.5 -131t62.5 -96.5t120 -35.5q197 0 229 271l21 229q-75 46 -170 49q-108 -5 -184.5 -81t-88.5 -205z" />
<glyph unicode="A" d="M-12 0v41l659 1405h141l656 -1405v-41h-318l-112 238h-596l-111 -238h-319zM518 496h397l-198 473z" />
<glyph unicode="B" horiz-adv-x="1376" d="M168 0v1432h608q201 0 326 -113.5t125 -310.5q0 -79 -38.5 -151.5t-105.5 -113.5q99 -41 152 -124.5t53 -194.5q0 -192 -121 -308t-333 -116h-666zM473 266h340q77 0 122 42.5t50 115.5v8q0 87 -63 133q-41 29 -123 29h-326v-328zM473 844h281q78 0 124.5 40.5 t47.5 112.5v6q0 74 -45 119q-47 47 -127 47h-281v-325z" />
<glyph unicode="C" horiz-adv-x="1558" d="M86 715q0 173 61.5 315.5t164 233t233.5 138.5q126 46 263 46h11q112 0 217 -30.5t197 -91t158 -160.5t90 -228h-297q-91 233 -365 233q-190 0 -307 -126t-117 -330q0 -123 51.5 -225.5t148.5 -164t222 -61.5q138 0 237.5 65.5t135.5 192.5h295q-22 -137 -87 -242.5 t-157.5 -168t-199 -94t-222.5 -31.5q-114 0 -221 29.5t-200 90.5t-162.5 146.5t-109.5 204.5t-40 258z" />
<glyph unicode="D" horiz-adv-x="1490" d="M168 0v1432h532q133 0 248 -39t197.5 -106.5t141 -157.5t87.5 -194t29 -214v-15q0 -103 -26 -201q-28 -105 -86.5 -196.5t-141 -160.5t-198.5 -108.5t-251 -39.5h-532zM473 276h223q96 0 174 37t127 99t75 141t26 166q0 117 -45 214.5t-138.5 159.5t-218.5 62h-223v-879z " />
<glyph unicode="E" horiz-adv-x="1171" d="M166 0v1434h878v-269h-569v-291h533v-268h-533v-327h586v-279h-895z" />
<glyph unicode="F" horiz-adv-x="1116" d="M166 0v1434h878v-269h-573v-387h514v-268h-514v-510h-305z" />
<glyph unicode="G" horiz-adv-x="1576" d="M86 717q0 172 61 314t163.5 232.5t233 139.5t273.5 49q110 0 211 -27.5t190 -82.5t154.5 -147.5t95.5 -213.5h-301q-53 102 -138.5 148.5t-211.5 46.5q-195 0 -307.5 -130t-112.5 -329q0 -205 114.5 -331t305.5 -126q78 0 138.5 13t113 43.5t90.5 85t60 133.5h-392v258 h672q3 -48 3 -93q0 -181 -46 -309q-53 -140 -153.5 -233.5t-222 -134.5t-263.5 -41q-114 0 -221.5 30.5t-200 92t-161.5 148t-108.5 206t-39.5 258.5z" />
<glyph unicode="H" horiz-adv-x="1492" d="M166 0v1434h305v-547h549v547h307v-1434h-307v606h-549v-606h-305z" />
<glyph unicode="I" horiz-adv-x="897" d="M92 0v244h203v952h-186v238h679v-238h-186v-952h203v-244h-713z" />
<glyph unicode="J" horiz-adv-x="1290" d="M53 475v174h285v-168q0 -112 68.5 -170.5t181.5 -58.5q111 0 176 59.5t65 169.5v688h-256v265h564v-959q0 -151 -76 -265t-199.5 -172t-273.5 -58t-270.5 58t-192.5 172t-72 265z" />
<glyph unicode="K" horiz-adv-x="1439" d="M166 0v1434h305v-592h29h32t29.5 0.5t31 1t28 1.5t29 3t24.5 5t25 6.5t20 8.5q52 28 80 97t63 215q74 268 344 269q67 0 146 -17v-209q-19 2 -35 2q-63 0 -101 -24q-48 -30 -71 -111q-35 -135 -76.5 -227t-103.5 -154l438 -664v-45h-346l-361 590q-59 -15 -225 -15v-575 h-305z" />
<glyph unicode="L" horiz-adv-x="1103" d="M166 0v1434h307v-1160h598v-274h-905z" />
<glyph unicode="M" horiz-adv-x="1705" d="M166 0v1438h113l575 -682l576 682h110v-1438h-307v776l-361 -450h-38l-361 450v-776h-307z" />
<glyph unicode="N" horiz-adv-x="1540" d="M166 0v1440h96l805 -819v813h307v-1438h-92l-811 823v-819h-305z" />
<glyph unicode="O" horiz-adv-x="1636" d="M86 717q0 175 61 318t164 233.5t234 139t276 48.5q113 0 219.5 -30t199 -92t161.5 -148.5t109 -207.5t40 -261q0 -161 -54 -299.5t-150 -235.5t-233 -152t-298 -55q-145 0 -275.5 49t-232 140t-161.5 234t-60 319zM395 717q0 -114 34 -203.5t92.5 -145t134.5 -84 t163 -28.5q85 0 160.5 28.5t135.5 84t95 145t35 203.5q0 111 -34.5 199.5t-94 144t-135 84.5t-160.5 29q-86 0 -162 -29.5t-135.5 -85t-94 -144t-34.5 -198.5z" />
<glyph unicode="P" horiz-adv-x="1341" d="M168 2v1434h612q121 0 220 -43.5t161 -117t95.5 -166.5t33.5 -196q0 -101 -34 -191.5t-97 -160.5t-161.5 -111.5t-217.5 -41.5h-305v-406h-307zM469 670h311q96 0 156.5 73.5t60.5 178.5q0 103 -59.5 174t-157.5 71h-311v-497z" />
<glyph unicode="Q" horiz-adv-x="1638" d="M86 717q0 164 54 302.5t149.5 236t232 152t297.5 54.5q143 0 273.5 -49.5t233 -141.5t163.5 -235.5t61 -318.5q0 -262 -129 -443l148 -243v-45h-279l-67 110q-187 -116 -416 -116q-145 2 -275 54.5t-229.5 145t-158 232t-58.5 305.5zM395 717q0 -105 35 -192t93.5 -142.5 t135 -86t160.5 -30.5t160.5 30.5t135 86t93.5 142.5t35 192q0 106 -35 193t-94 143t-135.5 86t-161.5 30q-112 0 -207 -52t-155 -157t-60 -243z" />
<glyph unicode="R" horiz-adv-x="1415" d="M168 2v1434h612q119 0 216.5 -41t160 -110t96 -157t33.5 -184q0 -138 -67 -250.5t-189 -171.5l324 -477v-43h-328l-295 473h-256v-473h-307zM471 727h307q95 1 154 65q57 62 57 152v6q0 93 -57.5 155t-153.5 62h-307v-440z" />
<glyph unicode="S" horiz-adv-x="1327" d="M86 424h293q3 -62 47 -105.5t106.5 -62t135.5 -18.5q274 0 274 180q0 34 -11 61.5t-26.5 46t-43.5 32.5t-50.5 21.5t-60.5 13.5t-60 8t-61 5q-523 46 -523 408q0 92 29.5 168t80 127.5t120.5 87t149 51.5t166 16q84 0 160 -14t148 -46.5t124 -81.5t83.5 -124t31.5 -168 h-287q-8 56 -47.5 94.5t-93.5 55t-119 16.5q-98 0 -170.5 -48t-72.5 -128q0 -37 14.5 -65t38 -45.5t61 -30.5t73.5 -19.5t87 -11.5q102 -9 176.5 -22.5t151.5 -44t125.5 -75t79 -117.5t30.5 -171t-33 -175.5t-87.5 -127t-130.5 -82.5t-155 -47.5t-169 -16.5q-111 0 -213 28 t-186 81.5t-134.5 143t-50.5 202.5z" />
<glyph unicode="T" horiz-adv-x="1134" d="M37 1167v267h1061v-267h-381v-1167h-297v1167h-383z" />
<glyph unicode="U" horiz-adv-x="1447" d="M154 477v957h307v-951q0 -110 76.5 -170.5t189.5 -60.5q112 0 188 60.5t76 170.5v951h303v-957q0 -117 -46 -212.5t-124.5 -156.5t-180 -93.5t-216.5 -32.5t-217.5 32.5t-182.5 93.5t-126.5 156.5t-46.5 212.5z" />
<glyph unicode="V" horiz-adv-x="1376" d="M10 1389v45h326l192 -461l160 -461h6l152 459l192 463h326v-45l-610 -1401h-127z" />
<glyph unicode="W" horiz-adv-x="1986" d="M29 1389v45h321l146 -439l129 -475h6l299 889h125l309 -889h6l121 477l143 437h322v-45l-494 -1401h-182l-285 774h-6l-276 -774h-189z" />
<glyph unicode="X" horiz-adv-x="1374" d="M20 0v43l484 715l-434 631v45h333l150 -236l131 -258h8l139 270l142 224h332v-45l-433 -631l482 -715v-43h-322l-186 276l-154 269h-10l-158 -277l-178 -268h-326z" />
<glyph unicode="Y" horiz-adv-x="1300" d="M4 1389v45h330l178 -306l135 -274h10l142 285l172 295h325v-45l-491 -816v-573h-307v573z" />
<glyph unicode="Z" horiz-adv-x="1239" d="M45 0v43l657 1122h-600v269h1057v-45l-649 -1115h655v-274h-1120z" />
<glyph unicode="[" horiz-adv-x="684" d="M147 -391v1968h455v-231h-188v-1481h188v-256h-455z" />
<glyph unicode="\" horiz-adv-x="1101" d="M57 1434h295l692 -1432h-294z" />
<glyph unicode="]" horiz-adv-x="684" d="M82 -135h188v1481h-188v231h455v-1968h-455v256z" />
<glyph unicode="^" horiz-adv-x="1148" d="M96 823l375 625h205l379 -625h-250l-234 381l-225 -381h-250z" />
<glyph unicode="_" horiz-adv-x="1261" d="M123 -25h1016v-245h-1016v245z" />
<glyph unicode="`" horiz-adv-x="688" d="M133 1358v24l262 97l154 -320v-26h-234z" />
<glyph unicode="a" d="M-12 0v41l659 1405h141l656 -1405v-41h-318l-112 238h-596l-111 -238h-319zM518 496h397l-198 473z" />
<glyph unicode="b" horiz-adv-x="1376" d="M168 0v1432h608q201 0 326 -113.5t125 -310.5q0 -79 -38.5 -151.5t-105.5 -113.5q99 -41 152 -124.5t53 -194.5q0 -192 -121 -308t-333 -116h-666zM473 266h340q77 0 122 42.5t50 115.5v8q0 87 -63 133q-41 29 -123 29h-326v-328zM473 844h281q78 0 124.5 40.5 t47.5 112.5v6q0 74 -45 119q-47 47 -127 47h-281v-325z" />
<glyph unicode="c" horiz-adv-x="1558" d="M86 715q0 173 61.5 315.5t164 233t233.5 138.5q126 46 263 46h11q112 0 217 -30.5t197 -91t158 -160.5t90 -228h-297q-91 233 -365 233q-190 0 -307 -126t-117 -330q0 -123 51.5 -225.5t148.5 -164t222 -61.5q138 0 237.5 65.5t135.5 192.5h295q-22 -137 -87 -242.5 t-157.5 -168t-199 -94t-222.5 -31.5q-114 0 -221 29.5t-200 90.5t-162.5 146.5t-109.5 204.5t-40 258z" />
<glyph unicode="d" horiz-adv-x="1490" d="M168 0v1432h532q133 0 248 -39t197.5 -106.5t141 -157.5t87.5 -194t29 -214v-15q0 -103 -26 -201q-28 -105 -86.5 -196.5t-141 -160.5t-198.5 -108.5t-251 -39.5h-532zM473 276h223q96 0 174 37t127 99t75 141t26 166q0 117 -45 214.5t-138.5 159.5t-218.5 62h-223v-879z " />
<glyph unicode="e" horiz-adv-x="1171" d="M166 0v1434h878v-269h-569v-291h533v-268h-533v-327h586v-279h-895z" />
<glyph unicode="f" horiz-adv-x="1116" d="M166 0v1434h878v-269h-573v-387h514v-268h-514v-510h-305z" />
<glyph unicode="g" horiz-adv-x="1576" d="M86 717q0 172 61 314t163.5 232.5t233 139.5t273.5 49q110 0 211 -27.5t190 -82.5t154.5 -147.5t95.5 -213.5h-301q-53 102 -138.5 148.5t-211.5 46.5q-195 0 -307.5 -130t-112.5 -329q0 -205 114.5 -331t305.5 -126q78 0 138.5 13t113 43.5t90.5 85t60 133.5h-392v258 h672q3 -48 3 -93q0 -181 -46 -309q-53 -140 -153.5 -233.5t-222 -134.5t-263.5 -41q-114 0 -221.5 30.5t-200 92t-161.5 148t-108.5 206t-39.5 258.5z" />
<glyph unicode="h" horiz-adv-x="1492" d="M166 0v1434h305v-547h549v547h307v-1434h-307v606h-549v-606h-305z" />
<glyph unicode="i" horiz-adv-x="897" d="M92 0v244h203v952h-186v238h679v-238h-186v-952h203v-244h-713z" />
<glyph unicode="j" horiz-adv-x="1290" d="M53 475v174h285v-168q0 -112 68.5 -170.5t181.5 -58.5q111 0 176 59.5t65 169.5v688h-256v265h564v-959q0 -151 -76 -265t-199.5 -172t-273.5 -58t-270.5 58t-192.5 172t-72 265z" />
<glyph unicode="k" horiz-adv-x="1439" d="M166 0v1434h305v-592h29h32t29.5 0.5t31 1t28 1.5t29 3t24.5 5t25 6.5t20 8.5q52 28 80 97t63 215q74 268 344 269q67 0 146 -17v-209q-19 2 -35 2q-63 0 -101 -24q-48 -30 -71 -111q-35 -135 -76.5 -227t-103.5 -154l438 -664v-45h-346l-361 590q-59 -15 -225 -15v-575 h-305z" />
<glyph unicode="l" horiz-adv-x="1103" d="M166 0v1434h307v-1160h598v-274h-905z" />
<glyph unicode="m" horiz-adv-x="1705" d="M166 0v1438h113l575 -682l576 682h110v-1438h-307v776l-361 -450h-38l-361 450v-776h-307z" />
<glyph unicode="n" horiz-adv-x="1540" d="M166 0v1440h96l805 -819v813h307v-1438h-92l-811 823v-819h-305z" />
<glyph unicode="o" horiz-adv-x="1636" d="M86 717q0 175 61 318t164 233.5t234 139t276 48.5q113 0 219.5 -30t199 -92t161.5 -148.5t109 -207.5t40 -261q0 -161 -54 -299.5t-150 -235.5t-233 -152t-298 -55q-145 0 -275.5 49t-232 140t-161.5 234t-60 319zM395 717q0 -114 34 -203.5t92.5 -145t134.5 -84 t163 -28.5q85 0 160.5 28.5t135.5 84t95 145t35 203.5q0 111 -34.5 199.5t-94 144t-135 84.5t-160.5 29q-86 0 -162 -29.5t-135.5 -85t-94 -144t-34.5 -198.5z" />
<glyph unicode="p" horiz-adv-x="1341" d="M168 2v1434h612q121 0 220 -43.5t161 -117t95.5 -166.5t33.5 -196q0 -101 -34 -191.5t-97 -160.5t-161.5 -111.5t-217.5 -41.5h-305v-406h-307zM469 670h311q96 0 156.5 73.5t60.5 178.5q0 103 -59.5 174t-157.5 71h-311v-497z" />
<glyph unicode="q" horiz-adv-x="1638" d="M86 717q0 164 54 302.5t149.5 236t232 152t297.5 54.5q143 0 273.5 -49.5t233 -141.5t163.5 -235.5t61 -318.5q0 -262 -129 -443l148 -243v-45h-279l-67 110q-187 -116 -416 -116q-145 2 -275 54.5t-229.5 145t-158 232t-58.5 305.5zM395 717q0 -105 35 -192t93.5 -142.5 t135 -86t160.5 -30.5t160.5 30.5t135 86t93.5 142.5t35 192q0 106 -35 193t-94 143t-135.5 86t-161.5 30q-112 0 -207 -52t-155 -157t-60 -243z" />
<glyph unicode="r" horiz-adv-x="1415" d="M168 2v1434h612q119 0 216.5 -41t160 -110t96 -157t33.5 -184q0 -138 -67 -250.5t-189 -171.5l324 -477v-43h-328l-295 473h-256v-473h-307zM471 727h307q95 1 154 65q57 62 57 152v6q0 93 -57.5 155t-153.5 62h-307v-440z" />
<glyph unicode="s" horiz-adv-x="1327" d="M86 424h293q3 -62 47 -105.5t106.5 -62t135.5 -18.5q274 0 274 180q0 34 -11 61.5t-26.5 46t-43.5 32.5t-50.5 21.5t-60.5 13.5t-60 8t-61 5q-523 46 -523 408q0 92 29.5 168t80 127.5t120.5 87t149 51.5t166 16q84 0 160 -14t148 -46.5t124 -81.5t83.5 -124t31.5 -168 h-287q-8 56 -47.5 94.5t-93.5 55t-119 16.5q-98 0 -170.5 -48t-72.5 -128q0 -37 14.5 -65t38 -45.5t61 -30.5t73.5 -19.5t87 -11.5q102 -9 176.5 -22.5t151.5 -44t125.5 -75t79 -117.5t30.5 -171t-33 -175.5t-87.5 -127t-130.5 -82.5t-155 -47.5t-169 -16.5q-111 0 -213 28 t-186 81.5t-134.5 143t-50.5 202.5z" />
<glyph unicode="t" horiz-adv-x="1134" d="M37 1167v267h1061v-267h-381v-1167h-297v1167h-383z" />
<glyph unicode="u" horiz-adv-x="1447" d="M154 477v957h307v-951q0 -110 76.5 -170.5t189.5 -60.5q112 0 188 60.5t76 170.5v951h303v-957q0 -117 -46 -212.5t-124.5 -156.5t-180 -93.5t-216.5 -32.5t-217.5 32.5t-182.5 93.5t-126.5 156.5t-46.5 212.5z" />
<glyph unicode="v" horiz-adv-x="1376" d="M10 1389v45h326l192 -461l160 -461h6l152 459l192 463h326v-45l-610 -1401h-127z" />
<glyph unicode="w" horiz-adv-x="1986" d="M29 1389v45h321l146 -439l129 -475h6l299 889h125l309 -889h6l121 477l143 437h322v-45l-494 -1401h-182l-285 774h-6l-276 -774h-189z" />
<glyph unicode="x" horiz-adv-x="1374" d="M20 0v43l484 715l-434 631v45h333l150 -236l131 -258h8l139 270l142 224h332v-45l-433 -631l482 -715v-43h-322l-186 276l-154 269h-10l-158 -277l-178 -268h-326z" />
<glyph unicode="y" horiz-adv-x="1300" d="M4 1389v45h330l178 -306l135 -274h10l142 285l172 295h325v-45l-491 -816v-573h-307v573z" />
<glyph unicode="z" horiz-adv-x="1239" d="M45 0v43l657 1122h-600v269h1057v-45l-649 -1115h655v-274h-1120z" />
<glyph unicode="{" horiz-adv-x="675" d="M68 526v211q35 2 58.5 17t34.5 40.5t15 52t4 62.5l2 385q0 63 11.5 111t28.5 80t49.5 54.5t60.5 34t78 17.5t84.5 7t95.5 1v-204q-69 2 -105 -22t-36 -89v-399q0 -89 -40 -157.5t-116 -96.5q156 -53 156 -262v-428q0 -67 36.5 -88t104.5 -13v-229q-65 0 -100.5 1t-86 7.5 t-77.5 18.5t-59 34.5t-47.5 56.5t-26.5 83.5t-11 115.5l-2 416q0 43 -8.5 81t-35 69.5t-68.5 31.5z" />
<glyph unicode="|" horiz-adv-x="567" d="M154 -178v1630h260v-1630h-260z" />
<glyph unicode="}" horiz-adv-x="675" d="M86 -160q68 -8 104.5 13t36.5 88v428q0 212 148 262q-75 28 -111.5 95.5t-36.5 158.5v399q0 65 -36 89t-105 22v204q61 0 95.5 -1t84.5 -7t78 -17.5t60.5 -34t49.5 -54.5t28.5 -80t11.5 -111l2 -385q0 -36 4 -62.5t15 -52t34.5 -40.5t58.5 -17v-211q-42 0 -68.5 -31.5 t-35 -69.5t-8.5 -81l-2 -416q0 -66 -11 -115.5t-26.5 -83.5t-47.5 -56.5t-59 -34.5t-77.5 -18.5t-86 -7.5t-100.5 -1v229z" />
<glyph unicode="~" horiz-adv-x="1273" d="M92 633q28 94 86.5 158.5t133 91t162 17.5t173.5 -56q111 -58 153 -70q126 -38 186 72q7 12 13 26q36 -17 94.5 -45.5t94.5 -44.5q-40 -106 -96 -169.5t-125.5 -84.5t-146.5 -10t-169 51q-16 7 -47 20.5t-48.5 21t-46.5 18t-48 13.5t-44.5 5.5t-44 -4t-39 -18t-37.5 -33 t-32 -51.5z" />
<glyph unicode="&#xa1;" horiz-adv-x="575" d="M119 846q0 68 47.5 111.5t120.5 43.5q70 0 119 -43.5t49 -111.5q0 -70 -48.5 -113t-119.5 -43q-73 0 -120.5 42.5t-47.5 113.5zM123 -463l18 1036h291l25 -1036h-334z" />
<glyph unicode="&#xa2;" horiz-adv-x="1224" d="M113 496q0 83 20 156t55.5 127.5t83.5 100t105 73t119.5 45.5t126.5 18t127 -10l53 151h121l-64 -186q104 -46 172.5 -132.5t91.5 -211.5l-266 -2q-25 61 -82 96l-170 -492q83 -13 155.5 27t100.5 127l271 -2q-14 -92 -57 -166.5t-103 -122t-135.5 -78t-154.5 -34.5 t-159 8l-51 -152h-129l64 187q-133 58 -214 178.5t-81 294.5zM395 496q0 -133 105 -217l164 483q-104 5 -186.5 -66.5t-82.5 -199.5z" />
<glyph unicode="&#xa3;" horiz-adv-x="1374" d="M98 623v192h144q-17 114 -9 204.5t43 160.5t85.5 120t119 82.5t143 48t158.5 17.5q215 3 430 -96l-92 -219q-175 79 -327 71q-142 -8 -216 -102.5t-40 -286.5h444v-192h-418q17 -134 -4 -228q-26 -93 -70 -149q45 25 107 28t113 -8t115 -23t102 -12q67 0 97.5 39 t23.5 148h237q29 -201 -42.5 -317.5t-256.5 -116.5q-47 0 -138.5 17t-166 32t-153.5 9t-121 -44h-295v27q95 88 135.5 178.5t42.5 204.5q3 87 -21 215h-170z" />
<glyph unicode="&#xa4;" horiz-adv-x="1163" d="M145 401l99 101q-43 76 -43 188q0 110 43 189l-99 98l144 141l98 -96q86 47 195 47q105 0 194 -47l96 96l146 -141l-100 -98q47 -77 47 -189q0 -107 -47 -190l100 -99l-146 -139l-96 96q-86 -47 -194 -47q-109 0 -195 47l-98 -96zM424 690q0 -81 46.5 -124.5t111.5 -43.5 t111 43.5t46 124.5t-46 125.5t-111 44.5t-111.5 -44.5t-46.5 -125.5z" />
<glyph unicode="&#xa5;" horiz-adv-x="1275" d="M70 1391v43h327l244 -570l240 570h325v-43l-362 -709h217v-168h-275v-102h275v-168h-275v-244h-299v244h-272v168h272v102h-272v168h215z" />
<glyph unicode="&#xa6;" horiz-adv-x="571" d="M156 -43v668h260v-668h-260zM156 793v659h260v-659h-260z" />
<glyph unicode="&#xa7;" horiz-adv-x="1325" d="M104 76q49 0 141 1t140 1q4 -78 89.5 -120.5t189.5 -37.5q63 0 121 15.5t99.5 51t41.5 83.5q0 22 -6.5 41t-15.5 33t-26 26t-31.5 20t-39 14.5t-40 10.5t-44.5 7.5t-43 4.5t-43.5 3t-38.5 3q-96 6 -174.5 26t-147.5 58t-109 103.5t-42 154.5q0 165 162 261 q-160 85 -160 251q0 93 44 167.5t117.5 120.5t165 70.5t191.5 24.5q98 0 189.5 -23.5t167.5 -68t121.5 -118.5t45.5 -166h-276q-4 75 -74 110t-168 35q-41 0 -79 -7t-74.5 -22.5t-59 -45.5t-22.5 -72q0 -36 17.5 -60.5t56 -39t78.5 -22t106 -14.5q61 -6 107 -12t99.5 -16 t93.5 -24t80.5 -33t68.5 -46t51 -60.5t34 -78t11 -98.5q-3 -156 -142 -256q142 -86 142 -262q0 -91 -48 -164.5t-128 -118.5t-176 -69.5t-199 -26.5q-85 0 -165 14t-153 44.5t-127 75t-86.5 109t-32.5 142.5zM397 604q4 -77 66.5 -115t185.5 -51q18 -2 58.5 -4.5t70.5 -6 t56 -9.5q52 24 84 66t32 94q0 149 -325 170q-55 3 -105 12q-58 -26 -91 -66.5t-32 -89.5z" />
<glyph unicode="&#xa8;" horiz-adv-x="1220" d="M152 1311q0 66 46.5 106.5t114.5 40.5q69 0 116.5 -40.5t47.5 -106.5t-47.5 -107t-116.5 -41q-68 0 -114.5 41t-46.5 107zM696 1311q0 66 46.5 106.5t115.5 40.5t115.5 -40.5t46.5 -106.5t-46.5 -107t-115.5 -41t-115.5 41t-46.5 107z" />
<glyph unicode="&#xa9;" horiz-adv-x="1611" d="M102 711q0 137 39.5 254t107 199.5t157.5 141t191.5 86t208 27.5t208 -27.5t191.5 -86t157.5 -141t107 -199.5t39.5 -254t-39.5 -254t-107 -199t-157.5 -141t-191.5 -86.5t-208 -28t-208 27t-191.5 86t-157.5 140.5t-107 199.5t-39.5 255.5zM309 711q0 -128 42.5 -231 t112.5 -166.5t159.5 -97.5t182.5 -34t182.5 34.5t159.5 98t112.5 166.5t42.5 230t-42.5 230.5t-112.5 167t-159.5 97.5t-182.5 34t-182.5 -34t-159.5 -97.5t-112.5 -167t-42.5 -230.5zM485 709q0 76 25 139t66 103.5t94.5 65t110.5 30t113 -8t102.5 -44t80 -82.5t43.5 -119 l-166 -2q-14 42 -48.5 67t-74.5 25t-77.5 -16.5t-62.5 -58.5t-25 -99q0 -51 22.5 -92t58 -60.5t74.5 -21.5t76 24.5t59 77.5l168 -2q-10 -67 -43.5 -120t-80.5 -84.5t-103.5 -46t-113.5 -10t-111 28.5t-95.5 64t-66.5 103t-25 139z" />
<glyph unicode="&#xaa;" horiz-adv-x="1005" d="M121 926q-8 83 33 144.5t108.5 90.5t149.5 29q111 -4 182 -47v31q0 42 -29.5 68.5t-65.5 35t-79 8.5q-121 0 -199 -41l-28 146q116 55 262 55q73 0 134.5 -14.5t113 -45.5t81 -87t29.5 -132v-260q0 -22 1.5 -33.5t7.5 -23t20 -16t37 -3.5v-116q-39 -9 -76 -11.5t-76.5 3 t-64.5 29.5t-27 65v20q-32 -59 -99 -86.5t-147 -27.5q-111 0 -184 53t-84 166zM174 395v180h682v-180h-682zM336 946q1 -40 27.5 -61t70.5 -21q57 0 105 27.5t55 79.5v39q-62 39 -148 39q-54 -4 -84.5 -33t-25.5 -70z" />
<glyph unicode="&#xab;" horiz-adv-x="1079" d="M90 709l309 499l162 -65l-201 -434l201 -428l-162 -68zM496 709l309 499l162 -65l-201 -434l201 -428l-162 -68z" />
<glyph unicode="&#xac;" horiz-adv-x="1179" d="M131 565v246h899v-559h-229v313h-670z" />
<glyph unicode="&#xad;" horiz-adv-x="964" d="M125 559v246h715v-246h-715z" />
<glyph unicode="&#xae;" horiz-adv-x="1611" d="M102 717q0 137 39.5 254t107 199.5t157.5 141t191.5 86t208 27.5t208 -27.5t191.5 -86t157.5 -141t107 -199.5t39.5 -254t-39.5 -254t-107 -199t-157.5 -141t-191.5 -86.5t-208 -28t-208 27t-191.5 86t-157.5 140.5t-107 199.5t-39.5 255.5zM311 717q0 -128 42.5 -231 t112.5 -166.5t159 -97.5t182 -34t182 34.5t159 98t112.5 166.5t42.5 230t-42.5 230.5t-112.5 167t-159 97.5t-182 34t-182 -34t-159 -97.5t-112.5 -167t-42.5 -230.5zM561 387v666h295q110 0 180 -61.5t70 -170.5q0 -66 -32.5 -119.5t-92.5 -72.5l141 -211v-31h-174 l-133 217h-84v-217h-170zM731 741h109q42 0 69 23t27 59q0 37 -25 59.5t-71 22.5h-109v-164z" />
<glyph unicode="&#xaf;" horiz-adv-x="1021" d="M178 1210v220h656v-220h-656z" />
<glyph unicode="&#xb0;" horiz-adv-x="915" d="M90 1114q0 83 31.5 150t83.5 108.5t118 64t134.5 22.5t134.5 -22.5t118 -64t83.5 -108.5t31.5 -150t-31.5 -150t-83.5 -108.5t-118 -64t-134.5 -22.5t-134.5 22.5t-118 64t-83.5 108.5t-31.5 150zM299 1114q0 -43 17.5 -77.5t45 -52t61 -25.5t66.5 0t60.5 25.5t45 52 t17.5 77.5t-17.5 77.5t-45 52t-60.5 25.5t-66.5 0t-61 -25.5t-45 -52t-17.5 -77.5z" />
<glyph unicode="&#xb1;" horiz-adv-x="1052" d="M139 33v231h774v-231h-774zM141 631v233h271v266h227v-266h274v-233h-274v-262h-227v262h-271z" />
<glyph unicode="&#xb2;" horiz-adv-x="854" d="M121 655v47l338 445q43 52 50.5 101t-20 79.5t-81.5 30.5q-43 0 -69 -25.5t-28 -68.5h-180q-2 134 72.5 208t210.5 74q85 0 150 -29.5t99 -78t45.5 -107.5t-4.5 -122t-57 -117l-196 -246h272v-191h-602z" />
<glyph unicode="&#xb3;" horiz-adv-x="821" d="M92 922h193q1 -42 35.5 -68.5t85.5 -26.5q52 0 84 33.5t32 79.5q0 48 -20 77t-52.5 37.5t-73 10.5t-81.5 -4v29l149 266h-315v176h586v-31l-172 -297q102 -23 146 -94.5t44 -167.5q0 -56 -21 -109.5t-60.5 -97t-102.5 -70t-141 -26.5q-133 0 -222.5 77.5t-93.5 205.5z " />
<glyph unicode="&#xb4;" horiz-adv-x="620" d="M102 1133v26l154 320l262 -97v-24l-182 -225h-234z" />
<glyph unicode="&#xb6;" horiz-adv-x="1587" d="M72.5 992.5q8.5 87.5 49 166.5t99.5 140t152 97t205 36h831v-1874h-285v1613h-297v-1613h-276v807q-102 3 -188.5 41t-143 100.5t-96.5 142.5t-49.5 168t-1 175.5z" />
<glyph unicode="&#xb7;" horiz-adv-x="569" d="M115 735q0 71 48.5 114.5t121.5 43.5t121.5 -43.5t48.5 -114.5t-48.5 -114t-121.5 -43t-121.5 43t-48.5 114z" />
<glyph unicode="&#xb8;" horiz-adv-x="802" d="M164 -424l16 158q29 -23 81.5 -36t101 -4.5t59.5 42.5q15 49 -39 76.5t-111 27.5l52 189h211l-31 -125q96 -11 133 -86.5t10 -157.5q-31 -85 -119.5 -121.5t-187.5 -23.5t-176 61z" />
<glyph unicode="&#xb9;" horiz-adv-x="733" d="M119 655v174h149v531h-131v172h346v-703h152v-174h-516z" />
<glyph unicode="&#xba;" horiz-adv-x="1105" d="M119 1092q0 96 37 174t97.5 126t137.5 74t158 26t158 -26t137.5 -74t97.5 -126t37 -174q0 -97 -37 -175t-97.5 -126.5t-137.5 -74.5t-158 -26t-158 26t-137.5 74.5t-97.5 126.5t-37 175zM131 328v225h850v-225h-850zM358 1094q0 -54 21 -97t55 -65t74.5 -32t81.5 0t75 32 t55 65t21 97t-21 96.5t-55 64t-75 32t-81.5 0t-74.5 -32t-55 -64t-21 -96.5z" />
<glyph unicode="&#xbb;" horiz-adv-x="1079" d="M113 281l200 428l-200 434l161 65l310 -499l-310 -496zM518 281l201 428l-201 434l162 65l309 -499l-309 -496z" />
<glyph unicode="&#xbc;" horiz-adv-x="1966" d="M94 580v170h150v528h-129v170h342v-698h149v-170h-512zM514 2l692 1432h254l-692 -1432h-254zM1190 164v96l385 617h233v-533h82v-180h-82v-164h-202v164h-416zM1436 336h184v143q3 25 6 90t6 90h-2z" />
<glyph unicode="&#xbd;" horiz-adv-x="1994" d="M94 571v172h150v533h-129v172h344v-705h151v-172h-516zM518 2l692 1432h254l-692 -1432h-254zM1307 0v47l338 445q43 52 50 101t-20.5 79t-81.5 30q-43 0 -68.5 -25.5t-27.5 -68.5h-180q-2 134 72 208.5t210 74.5q71 0 129 -21t93.5 -56.5t56 -82t21.5 -96.5t-15.5 -102 t-50.5 -97l-197 -246h273v-190h-602z" />
<glyph unicode="&#xbe;" horiz-adv-x="2009" d="M76 834h192q1 -42 35.5 -68.5t85.5 -26.5q52 0 84.5 33.5t32.5 79.5q0 48 -20 77t-52.5 37.5t-73 10.5t-81.5 -4v28l149 267h-315v176h585v-31l-172 -297q102 -23 146.5 -94.5t44.5 -167.5q0 -56 -21 -109.5t-60.5 -97t-103 -70t-141.5 -26.5q-133 0 -222 77.5t-93 205.5 zM557 2l692 1432h254l-692 -1432h-254zM1233 164v96l385 617h233v-533h82v-180h-82v-164h-202v164h-416zM1479 336h184v143q3 25 6 76t6 76h-2z" />
<glyph unicode="&#xbf;" horiz-adv-x="1038" d="M72 -49q0 52 17.5 101.5t46 90.5t63 82t68.5 83t62.5 85.5t46 98.5t17.5 114h271q0 -91 -20.5 -163t-54 -122t-69 -90t-74 -88.5t-59.5 -95.5q-19 -41 -19.5 -84t15.5 -79t55 -58.5t94 -22.5q73 0 129.5 42.5t63.5 117.5h252q0 -106 -35 -189t-97 -135t-142 -80t-173 -30 t-175.5 24t-145.5 77.5t-100 134t-37 186.5zM358 862q0 69 47 112.5t119 43.5q73 0 121.5 -44t48.5 -112q0 -71 -48.5 -114t-121.5 -43t-119.5 43t-46.5 114z" />
<glyph unicode="&#xc0;" d="M-12 0v41l659 1405h141l656 -1405v-41h-318l-112 238h-596l-111 -238h-319zM410 1786v24l262 97l153 -320v-26h-233zM518 496h397l-198 473z" />
<glyph unicode="&#xc1;" d="M-12 0v41l659 1405h141l656 -1405v-41h-318l-112 238h-596l-111 -238h-319zM518 496h397l-198 473zM596 1565v26l154 320l262 -96v-25l-183 -225h-233z" />
<glyph unicode="&#xc2;" d="M-12 0v41l659 1405h141l656 -1405v-41h-318l-112 238h-596l-111 -238h-319zM285 1522v28l293 303h286l291 -305v-26h-272l-162 159l-160 -159h-276zM518 496h397l-198 473z" />
<glyph unicode="&#xc3;" d="M-12 0v41l659 1405h141l656 -1405v-41h-318l-112 238h-596l-111 -238h-319zM334 1616q61 153 161 199t244 -23q25 -14 45.5 -23t47 -15.5t47.5 -3t41 20.5t32 48q27 -13 74.5 -35.5t75.5 -34.5q-42 -142 -149.5 -196t-235.5 10q-33 17 -51.5 25.5t-49 17.5t-50.5 5.5 t-42 -20t-37 -49.5zM518 496h397l-198 473z" />
<glyph unicode="&#xc4;" d="M-12 0v41l659 1405h141l656 -1405v-41h-318l-112 238h-596l-111 -238h-319zM283 1665q0 66 46.5 106.5t114.5 40.5q69 0 116.5 -40.5t47.5 -106.5t-47.5 -106.5t-116.5 -40.5q-68 0 -114.5 40.5t-46.5 106.5zM518 496h397l-198 473zM827 1665q0 66 46.5 106.5t115.5 40.5 t115.5 -40.5t46.5 -106.5t-46.5 -106.5t-115.5 -40.5t-115.5 40.5t-46.5 106.5z" />
<glyph unicode="&#xc5;" horiz-adv-x="1439" d="M-8 0v41l643 1370q-86 22 -140.5 83.5t-54.5 160.5q0 61 23.5 110.5t62 80t88 47t101 16.5t101 -16.5t88 -47t62 -80t23.5 -110.5q0 -94 -50.5 -154.5t-131.5 -85.5l641 -1374v-41h-318l-112 238h-596l-111 -238h-319zM522 496h398l-199 448zM606 1655q0 -47 34 -74 t74.5 -27t74.5 27t34 74q0 37 -22.5 62.5t-54.5 31.5t-63.5 0t-54 -31.5t-22.5 -62.5z" />
<glyph unicode="&#xc6;" horiz-adv-x="1687" d="M-10 0v45l667 1385h902v-263h-498v-297h465v-254h-465v-354h520v-262h-782v346h-359l-155 -346h-295zM535 596h264l12 571h-4z" />
<glyph unicode="&#xc7;" horiz-adv-x="1560" d="M88 715q0 173 61.5 315.5t164 233t233.5 138.5t274 46q112 0 217 -30.5t197 -91t158 -160.5t90 -228h-297q-91 233 -365 233q-190 0 -307 -126t-117 -330q0 -123 51.5 -225.5t148.5 -164t222 -61.5q138 0 237.5 65.5t135.5 192.5h295q-20 -117 -71.5 -212t-125 -158 t-160 -102t-184.5 -54l-26 -109q98 -11 134.5 -77t10.5 -156q-21 -66 -79 -103.5t-128.5 -43t-144.5 10.5t-131 52l16 158q45 -37 126.5 -38t102.5 48q8 27 -3.5 47t-35.5 30t-49 14.5t-49 4.5l41 158q-130 13 -245.5 67t-204.5 144t-141 222.5t-52 289.5z" />
<glyph unicode="&#xc8;" horiz-adv-x="1171" d="M166 0v1434h878v-269h-569v-291h533v-268h-533v-327h586v-279h-895zM340 1786v24l262 97l154 -320v-26h-234z" />
<glyph unicode="&#xc9;" horiz-adv-x="1171" d="M166 0v1434h878v-269h-569v-291h533v-268h-533v-327h586v-279h-895zM477 1573v26l154 320l262 -96v-25l-182 -225h-234z" />
<glyph unicode="&#xca;" horiz-adv-x="1171" d="M166 0v1434h878v-269h-569v-291h533v-268h-533v-327h586v-279h-895zM203 1563v26l278 299h275l278 -301v-24h-260l-156 155l-151 -155h-264z" />
<glyph unicode="&#xcb;" horiz-adv-x="1171" d="M166 0v1434h878v-269h-569v-291h533v-268h-533v-327h586v-279h-895zM172 1706q0 66 47 106.5t115 40.5q69 0 116.5 -40.5t47.5 -106.5t-47.5 -106.5t-116.5 -40.5q-68 0 -115 40.5t-47 106.5zM717 1706q0 66 46.5 106.5t115.5 40.5t115 -40.5t46 -106.5t-46 -106.5 t-115 -40.5t-115.5 40.5t-46.5 106.5z" />
<glyph unicode="&#xcc;" horiz-adv-x="897" d="M92 0v244h203v952h-186v238h679v-238h-186v-952h203v-244h-713zM150 1796v25l262 96l153 -320v-26h-233z" />
<glyph unicode="&#xcd;" horiz-adv-x="897" d="M92 0v244h203v952h-186v238h679v-238h-186v-952h203v-244h-713zM307 1567v26l154 320l262 -96v-25l-182 -225h-234z" />
<glyph unicode="&#xce;" horiz-adv-x="897" d="M41 1573v29l281 294h274l278 -297v-26h-262l-153 156l-154 -156h-264zM92 0v244h203v952h-186v238h679v-238h-186v-952h203v-244h-713z" />
<glyph unicode="&#xcf;" horiz-adv-x="897" d="M25 1712q0 66 46.5 107t114.5 41q69 0 116.5 -41t47.5 -107t-47.5 -106.5t-116.5 -40.5q-68 0 -114.5 40.5t-46.5 106.5zM92 0v244h203v952h-186v238h679v-238h-186v-952h203v-244h-713zM569 1712q0 66 46.5 107t115.5 41t115.5 -41t46.5 -107t-46.5 -106.5t-115.5 -40.5 t-115.5 40.5t-46.5 106.5z" />
<glyph unicode="&#xd0;" horiz-adv-x="1509" d="M31 586v239h155v607h533q166 0 301.5 -59.5t221.5 -159.5t132.5 -226.5t46.5 -265.5q2 -111 -25.5 -216t-86 -196.5t-141 -160.5t-198.5 -108.5t-251 -39.5h-533v586h-155zM492 276h223q127 0 220 64t137 162.5t44 216.5q0 117 -45 214.5t-138 159.5t-218 62h-223v-330 h229v-239h-229v-310z" />
<glyph unicode="&#xd1;" horiz-adv-x="1540" d="M166 0v1440h96l805 -819v813h307v-1438h-92l-811 823v-819h-305zM326 1610q61 153 161 199t244 -23q25 -14 45 -23t47 -15.5t48 -3.5t41 20t32 48q28 -12 75.5 -34t74.5 -35q-42 -142 -149.5 -196.5t-235.5 9.5q-28 15 -42.5 22t-41 17t-43.5 10t-37.5 -4t-36.5 -21 t-29 -44z" />
<glyph unicode="&#xd2;" horiz-adv-x="1636" d="M86 717q0 175 61 318t164 233.5t234 139t276 48.5q113 0 219.5 -30t199 -92t161.5 -148.5t109 -207.5t40 -261q0 -161 -54 -299.5t-150 -235.5t-233 -152t-298 -55q-145 0 -275.5 49t-232 140t-161.5 234t-60 319zM395 717q0 -114 34 -203.5t92.5 -145t134.5 -84 t163 -28.5q85 0 160.5 28.5t135.5 84t95 145t35 203.5q0 111 -34.5 199.5t-94 144t-135 84.5t-160.5 29q-86 0 -162 -29.5t-135.5 -85t-94 -144t-34.5 -198.5zM516 1804v25l285 94l168 -311v-25h-254z" />
<glyph unicode="&#xd3;" horiz-adv-x="1636" d="M86 717q0 175 61 318t164 233.5t234 139t276 48.5q113 0 219.5 -30t199 -92t161.5 -148.5t109 -207.5t40 -261q0 -161 -54 -299.5t-150 -235.5t-233 -152t-298 -55q-145 0 -275.5 49t-232 140t-161.5 234t-60 319zM395 717q0 -114 34 -203.5t92.5 -145t134.5 -84 t163 -28.5q85 0 160.5 28.5t135.5 84t95 145t35 203.5q0 111 -34.5 199.5t-94 144t-135 84.5t-160.5 29q-86 0 -162 -29.5t-135.5 -85t-94 -144t-34.5 -198.5zM666 1604v26l168 316l284 -95v-24l-196 -223h-256z" />
<glyph unicode="&#xd4;" horiz-adv-x="1636" d="M86 717q0 175 61 318t164 233.5t234 139t276 48.5q113 0 219.5 -30t199 -92t161.5 -148.5t109 -207.5t40 -261q0 -161 -54 -299.5t-150 -235.5t-233 -152t-298 -55q-145 0 -275.5 49t-232 140t-161.5 234t-60 319zM371 1563v28l293 303h286l291 -305v-26h-272l-162 159 l-160 -159h-276zM395 717q0 -114 34 -203.5t92.5 -145t134.5 -84t163 -28.5q85 0 160.5 28.5t135.5 84t95 145t35 203.5q0 111 -34.5 199.5t-94 144t-135 84.5t-160.5 29q-86 0 -162 -29.5t-135.5 -85t-94 -144t-34.5 -198.5z" />
<glyph unicode="&#xd5;" horiz-adv-x="1636" d="M86 717q0 175 61 318t164 233.5t234 139t276 48.5q113 0 219.5 -30t199 -92t161.5 -148.5t109 -207.5t40 -261q0 -161 -54 -299.5t-150 -235.5t-233 -152t-298 -55q-145 0 -275.5 49t-232 140t-161.5 234t-60 319zM395 717q0 -114 34 -203.5t92.5 -145t134.5 -84 t163 -28.5q85 0 160.5 28.5t135.5 84t95 145t35 203.5q0 111 -34.5 199.5t-94 144t-135 84.5t-160.5 29q-86 0 -162 -29.5t-135.5 -85t-94 -144t-34.5 -198.5zM434 1655q61 152 161.5 198.5t244.5 -22.5q25 -14 45.5 -23t47 -15.5t47.5 -3t41 20.5t32 48q27 -12 74 -34.5 t75 -35.5q-42 -142 -149.5 -196t-235.5 10q-33 17 -51 25.5t-48.5 17.5t-50.5 5.5t-42 -20t-37 -49.5z" />
<glyph unicode="&#xd6;" horiz-adv-x="1636" d="M86 717q0 175 61 318t164 233.5t234 139t276 48.5q113 0 219.5 -30t199 -92t161.5 -148.5t109 -207.5t40 -261q0 -161 -54 -299.5t-150 -235.5t-233 -152t-298 -55q-145 0 -275.5 49t-232 140t-161.5 234t-60 319zM395 717q0 -114 34 -203.5t92.5 -145t134.5 -84 t163 -28.5q85 0 160.5 28.5t135.5 84t95 145t35 203.5q0 111 -34.5 199.5t-94 144t-135 84.5t-160.5 29q-86 0 -162 -29.5t-135.5 -85t-94 -144t-34.5 -198.5zM401 1716q0 66 47 107t115 41q69 0 116.5 -41t47.5 -107t-47.5 -106.5t-116.5 -40.5q-68 0 -115 40.5t-47 106.5z M946 1716q0 66 46.5 107t115.5 41t115.5 -41t46.5 -107t-46.5 -106.5t-115.5 -40.5t-115.5 40.5t-46.5 106.5z" />
<glyph unicode="&#xd7;" horiz-adv-x="976" d="M115 911l172 174l202 -200l201 196l170 -170l-198 -200l200 -201l-174 -172l-199 199l-198 -197l-174 172l198 199z" />
<glyph unicode="&#xd8;" horiz-adv-x="1630" d="M86 717q0 175 61 318t163.5 233.5t233 139t273.5 48.5q147 0 270 -49l82 141h289v-28l-147 -246q233 -206 233 -557q0 -175 -61 -318.5t-163.5 -234.5t-233 -140t-273.5 -49q-134 0 -250 45l-86 -143h-287v31l144 239q-116 97 -182 241t-66 329zM393 717q0 -192 115 -307 l436 733q-64 22 -127 22q-84 0 -160.5 -30t-135 -85.5t-93.5 -142t-35 -190.5zM707 287q53 -21 112 -21q83 0 159 31t134 87t92.5 142.5t34.5 190.5q0 179 -104 291z" />
<glyph unicode="&#xd9;" horiz-adv-x="1447" d="M154 477v957h307v-951q0 -110 76.5 -170.5t189.5 -60.5q112 0 188 60.5t76 170.5v951h303v-957q0 -117 -46 -212.5t-124.5 -156.5t-180 -93.5t-216.5 -32.5t-217.5 32.5t-182.5 93.5t-126.5 156.5t-46.5 212.5zM449 1792v25l262 96l153 -320v-26h-233z" />
<glyph unicode="&#xda;" horiz-adv-x="1447" d="M154 477v957h307v-951q0 -110 76.5 -170.5t189.5 -60.5q112 0 188 60.5t76 170.5v951h303v-957q0 -117 -46 -212.5t-124.5 -156.5t-180 -93.5t-216.5 -32.5t-217.5 32.5t-182.5 93.5t-126.5 156.5t-46.5 212.5zM584 1565v26l153 320l262 -96v-25l-182 -225h-233z" />
<glyph unicode="&#xdb;" horiz-adv-x="1447" d="M154 477v957h307v-951q0 -110 76.5 -170.5t189.5 -60.5q112 0 188 60.5t76 170.5v951h303v-957q0 -117 -46 -212.5t-124.5 -156.5t-180 -93.5t-216.5 -32.5t-217.5 32.5t-182.5 93.5t-126.5 156.5t-46.5 212.5zM293 1583v29l293 303h286l291 -305v-27h-272l-162 160 l-160 -160h-276z" />
<glyph unicode="&#xdc;" horiz-adv-x="1447" d="M154 477v957h307v-951q0 -110 76.5 -170.5t189.5 -60.5q112 0 188 60.5t76 170.5v951h303v-957q0 -117 -46 -212.5t-124.5 -156.5t-180 -93.5t-216.5 -32.5t-217.5 32.5t-182.5 93.5t-126.5 156.5t-46.5 212.5zM283 1702q0 66 46.5 106.5t114.5 40.5q69 0 116.5 -40.5 t47.5 -106.5t-47.5 -107t-116.5 -41q-68 0 -114.5 41t-46.5 107zM827 1702q0 66 46.5 106.5t115.5 40.5t115.5 -40.5t46.5 -106.5t-46.5 -107t-115.5 -41t-115.5 41t-46.5 107z" />
<glyph unicode="&#xdd;" horiz-adv-x="1300" d="M4 1389v45h330l178 -306l135 -274h10l142 285l172 295h325v-45l-491 -816v-573h-307v573zM514 1581v27l154 319l262 -96v-25l-182 -225h-234z" />
<glyph unicode="&#xde;" horiz-adv-x="1355" d="M166 0v1434h307v-187h307q121 0 220 -43.5t161 -117.5t95.5 -167t33.5 -196q-2 -101 -36 -192.5t-96 -163t-160 -114t-218 -42.5h-307v-211h-307zM469 473h311q94 0 154.5 76.5t60.5 181.5t-58 179.5t-157 74.5h-311v-512z" />
<glyph unicode="&#xdf;" horiz-adv-x="1255" d="M133 0v1012q0 98 27 173.5t70 123.5t109 78t129.5 42.5t147.5 12t147.5 -7t145 -22.5t124.5 -26.5t100 -25.5v-51l-240 -465q77 -12 134 -49.5t89 -91.5t47 -115t15 -129q0 -137 -45.5 -241t-126 -160t-191 -70t-240.5 30v226q138 -38 226 30t88 185q0 86 -47 138.5 t-117 67.5t-156 3v53l217 459q-71 26 -136.5 28t-117 -20t-82 -72.5t-30.5 -122.5v-24.5t-0.5 -74.5t-1 -150.5t-0.5 -289.5v-454h-285z" />
<glyph unicode="&#xe0;" d="M-12 0v41l659 1405h141l656 -1405v-41h-318l-112 238h-596l-111 -238h-319zM410 1786v24l262 97l153 -320v-26h-233zM518 496h397l-198 473z" />
<glyph unicode="&#xe1;" d="M-12 0v41l659 1405h141l656 -1405v-41h-318l-112 238h-596l-111 -238h-319zM518 496h397l-198 473zM596 1565v26l154 320l262 -96v-25l-183 -225h-233z" />
<glyph unicode="&#xe2;" d="M-12 0v41l659 1405h141l656 -1405v-41h-318l-112 238h-596l-111 -238h-319zM285 1522v28l293 303h286l291 -305v-26h-272l-162 159l-160 -159h-276zM518 496h397l-198 473z" />
<glyph unicode="&#xe3;" d="M-12 0v41l659 1405h141l656 -1405v-41h-318l-112 238h-596l-111 -238h-319zM334 1616q61 153 161 199t244 -23q25 -14 45.5 -23t47 -15.5t47.5 -3t41 20.5t32 48q27 -13 74.5 -35.5t75.5 -34.5q-42 -142 -149.5 -196t-235.5 10q-33 17 -51.5 25.5t-49 17.5t-50.5 5.5 t-42 -20t-37 -49.5zM518 496h397l-198 473z" />
<glyph unicode="&#xe4;" d="M-12 0v41l659 1405h141l656 -1405v-41h-318l-112 238h-596l-111 -238h-319zM283 1665q0 66 46.5 106.5t114.5 40.5q69 0 116.5 -40.5t47.5 -106.5t-47.5 -106.5t-116.5 -40.5q-68 0 -114.5 40.5t-46.5 106.5zM518 496h397l-198 473zM827 1665q0 66 46.5 106.5t115.5 40.5 t115.5 -40.5t46.5 -106.5t-46.5 -106.5t-115.5 -40.5t-115.5 40.5t-46.5 106.5z" />
<glyph unicode="&#xe5;" horiz-adv-x="1439" d="M-8 0v41l643 1370q-86 22 -140.5 83.5t-54.5 160.5q0 61 23.5 110.5t62 80t88 47t101 16.5t101 -16.5t88 -47t62 -80t23.5 -110.5q0 -94 -50.5 -154.5t-131.5 -85.5l641 -1374v-41h-318l-112 238h-596l-111 -238h-319zM522 496h398l-199 448zM606 1655q0 -47 34 -74 t74.5 -27t74.5 27t34 74q0 37 -22.5 62.5t-54.5 31.5t-63.5 0t-54 -31.5t-22.5 -62.5z" />
<glyph unicode="&#xe6;" horiz-adv-x="1687" d="M-10 0v45l667 1385h902v-263h-498v-297h465v-254h-465v-354h520v-262h-782v346h-359l-155 -346h-295zM535 596h264l12 571h-4z" />
<glyph unicode="&#xe7;" horiz-adv-x="1560" d="M88 715q0 173 61.5 315.5t164 233t233.5 138.5t274 46q112 0 217 -30.5t197 -91t158 -160.5t90 -228h-297q-91 233 -365 233q-190 0 -307 -126t-117 -330q0 -123 51.5 -225.5t148.5 -164t222 -61.5q138 0 237.5 65.5t135.5 192.5h295q-20 -117 -71.5 -212t-125 -158 t-160 -102t-184.5 -54l-26 -109q98 -11 134.5 -77t10.5 -156q-21 -66 -79 -103.5t-128.5 -43t-144.5 10.5t-131 52l16 158q45 -37 126.5 -38t102.5 48q8 27 -3.5 47t-35.5 30t-49 14.5t-49 4.5l41 158q-130 13 -245.5 67t-204.5 144t-141 222.5t-52 289.5z" />
<glyph unicode="&#xe8;" horiz-adv-x="1171" d="M166 0v1434h878v-269h-569v-291h533v-268h-533v-327h586v-279h-895zM340 1786v24l262 97l154 -320v-26h-234z" />
<glyph unicode="&#xe9;" horiz-adv-x="1171" d="M166 0v1434h878v-269h-569v-291h533v-268h-533v-327h586v-279h-895zM477 1573v26l154 320l262 -96v-25l-182 -225h-234z" />
<glyph unicode="&#xea;" horiz-adv-x="1171" d="M166 0v1434h878v-269h-569v-291h533v-268h-533v-327h586v-279h-895zM203 1563v26l278 299h275l278 -301v-24h-260l-156 155l-151 -155h-264z" />
<glyph unicode="&#xeb;" horiz-adv-x="1171" d="M166 0v1434h878v-269h-569v-291h533v-268h-533v-327h586v-279h-895zM172 1706q0 66 47 106.5t115 40.5q69 0 116.5 -40.5t47.5 -106.5t-47.5 -106.5t-116.5 -40.5q-68 0 -115 40.5t-47 106.5zM717 1706q0 66 46.5 106.5t115.5 40.5t115 -40.5t46 -106.5t-46 -106.5 t-115 -40.5t-115.5 40.5t-46.5 106.5z" />
<glyph unicode="&#xec;" horiz-adv-x="897" d="M92 0v244h203v952h-186v238h679v-238h-186v-952h203v-244h-713zM150 1796v25l262 96l153 -320v-26h-233z" />
<glyph unicode="&#xed;" horiz-adv-x="897" d="M92 0v244h203v952h-186v238h679v-238h-186v-952h203v-244h-713zM307 1567v26l154 320l262 -96v-25l-182 -225h-234z" />
<glyph unicode="&#xee;" horiz-adv-x="897" d="M41 1573v29l281 294h274l278 -297v-26h-262l-153 156l-154 -156h-264zM92 0v244h203v952h-186v238h679v-238h-186v-952h203v-244h-713z" />
<glyph unicode="&#xef;" horiz-adv-x="897" d="M25 1712q0 66 46.5 107t114.5 41q69 0 116.5 -41t47.5 -107t-47.5 -106.5t-116.5 -40.5q-68 0 -114.5 40.5t-46.5 106.5zM92 0v244h203v952h-186v238h679v-238h-186v-952h203v-244h-713zM569 1712q0 66 46.5 107t115.5 41t115.5 -41t46.5 -107t-46.5 -106.5t-115.5 -40.5 t-115.5 40.5t-46.5 106.5z" />
<glyph unicode="&#xf0;" horiz-adv-x="1509" d="M31 586v239h155v607h533q166 0 301.5 -59.5t221.5 -159.5t132.5 -226.5t46.5 -265.5q2 -111 -25.5 -216t-86 -196.5t-141 -160.5t-198.5 -108.5t-251 -39.5h-533v586h-155zM492 276h223q127 0 220 64t137 162.5t44 216.5q0 117 -45 214.5t-138 159.5t-218 62h-223v-330 h229v-239h-229v-310z" />
<glyph unicode="&#xf1;" horiz-adv-x="1540" d="M166 0v1440h96l805 -819v813h307v-1438h-92l-811 823v-819h-305zM326 1610q61 153 161 199t244 -23q25 -14 45 -23t47 -15.5t48 -3.5t41 20t32 48q28 -12 75.5 -34t74.5 -35q-42 -142 -149.5 -196.5t-235.5 9.5q-28 15 -42.5 22t-41 17t-43.5 10t-37.5 -4t-36.5 -21 t-29 -44z" />
<glyph unicode="&#xf2;" horiz-adv-x="1636" d="M86 717q0 175 61 318t164 233.5t234 139t276 48.5q113 0 219.5 -30t199 -92t161.5 -148.5t109 -207.5t40 -261q0 -161 -54 -299.5t-150 -235.5t-233 -152t-298 -55q-145 0 -275.5 49t-232 140t-161.5 234t-60 319zM395 717q0 -114 34 -203.5t92.5 -145t134.5 -84 t163 -28.5q85 0 160.5 28.5t135.5 84t95 145t35 203.5q0 111 -34.5 199.5t-94 144t-135 84.5t-160.5 29q-86 0 -162 -29.5t-135.5 -85t-94 -144t-34.5 -198.5zM516 1804v25l285 94l168 -311v-25h-254z" />
<glyph unicode="&#xf3;" horiz-adv-x="1636" d="M86 717q0 175 61 318t164 233.5t234 139t276 48.5q113 0 219.5 -30t199 -92t161.5 -148.5t109 -207.5t40 -261q0 -161 -54 -299.5t-150 -235.5t-233 -152t-298 -55q-145 0 -275.5 49t-232 140t-161.5 234t-60 319zM395 717q0 -114 34 -203.5t92.5 -145t134.5 -84 t163 -28.5q85 0 160.5 28.5t135.5 84t95 145t35 203.5q0 111 -34.5 199.5t-94 144t-135 84.5t-160.5 29q-86 0 -162 -29.5t-135.5 -85t-94 -144t-34.5 -198.5zM666 1604v26l168 316l284 -95v-24l-196 -223h-256z" />
<glyph unicode="&#xf4;" horiz-adv-x="1636" d="M86 717q0 175 61 318t164 233.5t234 139t276 48.5q113 0 219.5 -30t199 -92t161.5 -148.5t109 -207.5t40 -261q0 -161 -54 -299.5t-150 -235.5t-233 -152t-298 -55q-145 0 -275.5 49t-232 140t-161.5 234t-60 319zM371 1563v28l293 303h286l291 -305v-26h-272l-162 159 l-160 -159h-276zM395 717q0 -114 34 -203.5t92.5 -145t134.5 -84t163 -28.5q85 0 160.5 28.5t135.5 84t95 145t35 203.5q0 111 -34.5 199.5t-94 144t-135 84.5t-160.5 29q-86 0 -162 -29.5t-135.5 -85t-94 -144t-34.5 -198.5z" />
<glyph unicode="&#xf5;" horiz-adv-x="1636" d="M86 717q0 175 61 318t164 233.5t234 139t276 48.5q113 0 219.5 -30t199 -92t161.5 -148.5t109 -207.5t40 -261q0 -161 -54 -299.5t-150 -235.5t-233 -152t-298 -55q-145 0 -275.5 49t-232 140t-161.5 234t-60 319zM395 717q0 -114 34 -203.5t92.5 -145t134.5 -84 t163 -28.5q85 0 160.5 28.5t135.5 84t95 145t35 203.5q0 111 -34.5 199.5t-94 144t-135 84.5t-160.5 29q-86 0 -162 -29.5t-135.5 -85t-94 -144t-34.5 -198.5zM434 1655q61 152 161.5 198.5t244.5 -22.5q25 -14 45.5 -23t47 -15.5t47.5 -3t41 20.5t32 48q27 -12 74 -34.5 t75 -35.5q-42 -142 -149.5 -196t-235.5 10q-33 17 -51 25.5t-48.5 17.5t-50.5 5.5t-42 -20t-37 -49.5z" />
<glyph unicode="&#xf6;" horiz-adv-x="1636" d="M86 717q0 175 61 318t164 233.5t234 139t276 48.5q113 0 219.5 -30t199 -92t161.5 -148.5t109 -207.5t40 -261q0 -161 -54 -299.5t-150 -235.5t-233 -152t-298 -55q-145 0 -275.5 49t-232 140t-161.5 234t-60 319zM395 717q0 -114 34 -203.5t92.5 -145t134.5 -84 t163 -28.5q85 0 160.5 28.5t135.5 84t95 145t35 203.5q0 111 -34.5 199.5t-94 144t-135 84.5t-160.5 29q-86 0 -162 -29.5t-135.5 -85t-94 -144t-34.5 -198.5zM401 1716q0 66 47 107t115 41q69 0 116.5 -41t47.5 -107t-47.5 -106.5t-116.5 -40.5q-68 0 -115 40.5t-47 106.5z M946 1716q0 66 46.5 107t115.5 41t115.5 -41t46.5 -107t-46.5 -106.5t-115.5 -40.5t-115.5 40.5t-46.5 106.5z" />
<glyph unicode="&#xf7;" horiz-adv-x="1103" d="M104 610v246h895v-246h-895zM385 342q0 70 48.5 114t119.5 44q73 0 121.5 -43.5t48.5 -114.5t-48 -113.5t-122 -42.5q-71 0 -119.5 43t-48.5 113zM385 1130q0 70 48.5 114t119.5 44q73 0 121.5 -43.5t48.5 -114.5t-48 -113t-122 -42q-71 0 -119.5 42.5t-48.5 112.5z" />
<glyph unicode="&#xf8;" horiz-adv-x="1630" d="M86 717q0 175 61 318t163.5 233.5t233 139t273.5 48.5q147 0 270 -49l82 141h289v-28l-147 -246q233 -206 233 -557q0 -175 -61 -318.5t-163.5 -234.5t-233 -140t-273.5 -49q-134 0 -250 45l-86 -143h-287v31l144 239q-116 97 -182 241t-66 329zM393 717q0 -192 115 -307 l436 733q-64 22 -127 22q-84 0 -160.5 -30t-135 -85.5t-93.5 -142t-35 -190.5zM707 287q53 -21 112 -21q83 0 159 31t134 87t92.5 142.5t34.5 190.5q0 179 -104 291z" />
<glyph unicode="&#xf9;" horiz-adv-x="1447" d="M154 477v957h307v-951q0 -110 76.5 -170.5t189.5 -60.5q112 0 188 60.5t76 170.5v951h303v-957q0 -117 -46 -212.5t-124.5 -156.5t-180 -93.5t-216.5 -32.5t-217.5 32.5t-182.5 93.5t-126.5 156.5t-46.5 212.5zM449 1792v25l262 96l153 -320v-26h-233z" />
<glyph unicode="&#xfa;" horiz-adv-x="1447" d="M154 477v957h307v-951q0 -110 76.5 -170.5t189.5 -60.5q112 0 188 60.5t76 170.5v951h303v-957q0 -117 -46 -212.5t-124.5 -156.5t-180 -93.5t-216.5 -32.5t-217.5 32.5t-182.5 93.5t-126.5 156.5t-46.5 212.5zM584 1565v26l153 320l262 -96v-25l-182 -225h-233z" />
<glyph unicode="&#xfb;" horiz-adv-x="1447" d="M154 477v957h307v-951q0 -110 76.5 -170.5t189.5 -60.5q112 0 188 60.5t76 170.5v951h303v-957q0 -117 -46 -212.5t-124.5 -156.5t-180 -93.5t-216.5 -32.5t-217.5 32.5t-182.5 93.5t-126.5 156.5t-46.5 212.5zM293 1583v29l293 303h286l291 -305v-27h-272l-162 160 l-160 -160h-276z" />
<glyph unicode="&#xfc;" horiz-adv-x="1447" d="M154 477v957h307v-951q0 -110 76.5 -170.5t189.5 -60.5q112 0 188 60.5t76 170.5v951h303v-957q0 -117 -46 -212.5t-124.5 -156.5t-180 -93.5t-216.5 -32.5t-217.5 32.5t-182.5 93.5t-126.5 156.5t-46.5 212.5zM283 1702q0 66 46.5 106.5t114.5 40.5q69 0 116.5 -40.5 t47.5 -106.5t-47.5 -107t-116.5 -41q-68 0 -114.5 41t-46.5 107zM827 1702q0 66 46.5 106.5t115.5 40.5t115.5 -40.5t46.5 -106.5t-46.5 -107t-115.5 -41t-115.5 41t-46.5 107z" />
<glyph unicode="&#xfd;" horiz-adv-x="1300" d="M4 1389v45h330l178 -306l135 -274h10l142 285l172 295h325v-45l-491 -816v-573h-307v573zM514 1581v27l154 319l262 -96v-25l-182 -225h-234z" />
<glyph unicode="&#xfe;" horiz-adv-x="1351" d="M166 0v1434h307v-201h307q121 0 220 -43.5t161 -117.5t95.5 -167t33.5 -196q-2 -101 -36 -192.5t-96 -163t-160 -114t-218 -42.5h-307v-197h-307zM469 459h311q94 0 154.5 76.5t60.5 181.5t-58 179.5t-157 74.5h-311v-512z" />
<glyph unicode="&#xff;" horiz-adv-x="1300" d="M4 1389v45h330l178 -306l135 -274h10l142 285l172 295h325v-45l-491 -816v-573h-307v573zM223 1706q0 66 47 106.5t115 40.5q69 0 116.5 -40.5t47.5 -106.5t-47.5 -106.5t-116.5 -40.5q-68 0 -115 40.5t-47 106.5zM768 1706q0 66 46.5 106.5t115.5 40.5t115.5 -40.5 t46.5 -106.5t-46.5 -106.5t-115.5 -40.5t-115.5 40.5t-46.5 106.5z" />
<glyph unicode="&#x152;" horiz-adv-x="1892" d="M88 713q0 177 58.5 320t159 234.5t232.5 139t281 45.5q107 0 201 -22h743v-259h-530v-307h496v-241h-496v-369h551v-254h-772q-112 -25 -211 -25q-148 0 -276.5 48.5t-226.5 140t-154 233t-56 316.5zM383 713q0 -226 123 -359t321 -133q75 0 148 23v930q-66 21 -150 24 q-201 0 -321.5 -126t-120.5 -359z" />
<glyph unicode="&#x153;" horiz-adv-x="1892" d="M88 713q0 177 58.5 320t159 234.5t232.5 139t281 45.5q107 0 201 -22h743v-259h-530v-307h496v-241h-496v-369h551v-254h-772q-112 -25 -211 -25q-148 0 -276.5 48.5t-226.5 140t-154 233t-56 316.5zM383 713q0 -226 123 -359t321 -133q75 0 148 23v930q-66 21 -150 24 q-201 0 -321.5 -126t-120.5 -359z" />
<glyph unicode="&#x178;" horiz-adv-x="1300" d="M4 1389v45h330l178 -306l135 -274h10l142 285l172 295h325v-45l-491 -816v-573h-307v573zM217 1710q0 66 47 107t115 41q69 0 116.5 -41t47.5 -107t-47.5 -106.5t-116.5 -40.5q-68 0 -115 40.5t-47 106.5zM762 1710q0 66 46.5 107t115.5 41t115 -41t46 -107t-46 -106.5 t-115 -40.5t-115.5 40.5t-46.5 106.5z" />
<glyph unicode="&#x2c6;" horiz-adv-x="1011" d="M94 1106v29l293 303h287l291 -305v-27h-273l-162 160l-159 -160h-277z" />
<glyph unicode="&#x2dc;" horiz-adv-x="960" d="M94 1247q61 152 161.5 198.5t244.5 -22.5q25 -14 45.5 -23t47 -15.5t47.5 -3t41 20.5t32 48q27 -13 74 -35.5t75 -34.5q-42 -142 -149.5 -196t-235.5 10q-28 15 -42.5 21.5t-40.5 17t-43 10.5t-37.5 -4t-36.5 -21t-29 -44z" />
<glyph unicode="&#x2000;" horiz-adv-x="973" />
<glyph unicode="&#x2001;" horiz-adv-x="1946" />
<glyph unicode="&#x2002;" horiz-adv-x="973" />
<glyph unicode="&#x2003;" horiz-adv-x="1946" />
<glyph unicode="&#x2004;" horiz-adv-x="648" />
<glyph unicode="&#x2005;" horiz-adv-x="486" />
<glyph unicode="&#x2006;" horiz-adv-x="324" />
<glyph unicode="&#x2007;" horiz-adv-x="324" />
<glyph unicode="&#x2008;" horiz-adv-x="243" />
<glyph unicode="&#x2009;" horiz-adv-x="389" />
<glyph unicode="&#x200a;" horiz-adv-x="108" />
<glyph unicode="&#x2010;" horiz-adv-x="964" d="M125 559v246h715v-246h-715z" />
<glyph unicode="&#x2011;" horiz-adv-x="964" d="M125 559v246h715v-246h-715z" />
<glyph unicode="&#x2012;" horiz-adv-x="964" d="M125 559v246h715v-246h-715z" />
<glyph unicode="&#x2013;" horiz-adv-x="1116" d="M125 559v246h866v-246h-866z" />
<glyph unicode="&#x2014;" horiz-adv-x="1296" d="M125 559v246h1046v-246h-1046z" />
<glyph unicode="&#x2018;" horiz-adv-x="534" d="M100 1120q3 36 15 64l82 256h170l-50 -172q53 -14 86 -54t33 -98q0 -71 -47.5 -113t-120.5 -42q-57 0 -99.5 27.5t-59.5 76.5q-9 24 -9 55z" />
<glyph unicode="&#x2019;" horiz-adv-x="536" d="M102 1290q0 71 47.5 114.5t120.5 43.5q56 0 99.5 -29t60.5 -78q8 -21 8 -53q-3 -39 -14 -63l-84 -258h-168l49 174q-53 14 -86 54t-33 95z" />
<glyph unicode="&#x201a;" horiz-adv-x="565" d="M115 123q0 71 47.5 114.5t120.5 43.5q57 0 99.5 -28.5t59.5 -78.5q9 -21 9 -53q0 -23 -15 -66q-16 -44 -42.5 -129t-41.5 -129h-168l49 174q-118 40 -118 152z" />
<glyph unicode="&#x201c;" horiz-adv-x="980" d="M100 1118q0 29 13 66l84 256h170l-52 -174q56 -14 88.5 -53t32.5 -97q0 -71 -48.5 -114.5t-121.5 -43.5q-57 0 -98.5 28.5t-58.5 78.5q-9 21 -9 53zM549 1118q0 38 14 66l82 256h170l-49 -174q53 -14 86 -53t33 -97q0 -71 -47.5 -114.5t-120.5 -43.5q-57 0 -100 28.5 t-60 78.5q-8 19 -8 53z" />
<glyph unicode="&#x201d;" horiz-adv-x="991" d="M102 1290q0 71 47.5 114.5t120.5 43.5q56 0 99.5 -29t60.5 -78q8 -21 8 -53q-3 -39 -14 -63l-84 -258h-168l49 174q-53 14 -86 54t-33 95zM557 1290q0 71 47.5 114.5t120.5 43.5q57 0 100 -28.5t60 -78.5q8 -19 8 -53q0 -38 -14 -63l-82 -258h-170l49 174q-53 14 -86 54 t-33 95z" />
<glyph unicode="&#x201e;" horiz-adv-x="1017" d="M115 123q0 71 48.5 114.5t121.5 43.5q55 0 97.5 -28.5t59.5 -78.5q9 -21 9 -53q0 -16 -13 -66q-20 -56 -84 -256h-170l52 172q-121 39 -121 152zM567 123q0 71 47.5 114.5t120.5 43.5q56 0 99.5 -29t60.5 -78q8 -21 8 -53q-2 -33 -14 -66q-14 -40 -40.5 -125.5 t-43.5 -130.5h-168l49 172q-54 18 -86.5 56.5t-32.5 95.5z" />
<glyph unicode="&#x2022;" horiz-adv-x="921" d="M154 733q0 128 89 208.5t218 80.5q130 0 218.5 -80.5t88.5 -208.5q0 -125 -88.5 -203.5t-218.5 -78.5q-129 0 -218 78.5t-89 203.5z" />
<glyph unicode="&#x2026;" horiz-adv-x="1628" d="M115 125q0 72 48.5 116t121.5 44t121.5 -44t48.5 -116q0 -68 -48.5 -112t-121.5 -44t-121.5 44t-48.5 112zM641 125q0 72 48.5 116t121.5 44t121.5 -44t48.5 -116q0 -68 -48.5 -112t-121.5 -44t-121.5 44t-48.5 112zM1174 125q0 72 49 116t120 44q73 0 121.5 -44 t48.5 -116q0 -68 -48.5 -112t-121.5 -44q-70 0 -119.5 44t-49.5 112z" />
<glyph unicode="&#x202f;" horiz-adv-x="389" />
<glyph unicode="&#x2039;" horiz-adv-x="673" d="M90 709l309 499l162 -65l-201 -434l201 -428l-162 -68z" />
<glyph unicode="&#x203a;" horiz-adv-x="673" d="M113 281l200 428l-200 434l161 65l310 -499l-310 -496z" />
<glyph unicode="&#x205f;" horiz-adv-x="486" />
<glyph unicode="&#x20ac;" horiz-adv-x="1341" d="M88 508v162h137q-4 72 2 112h-139v158h164q32 123 101 220.5t161 160t201 95t227 32.5q163 0 281 -51l-90 -240q-81 35 -181 35q-131 0 -231 -67.5t-150 -184.5h430l-51 -158h-426q-10 -65 -2 -112h389l-55 -162h-299q44 -121 144.5 -190.5t248.5 -69.5q118 0 217 55 l101 -248q-151 -71 -326 -71q-272 0 -456.5 136t-237.5 388h-160z" />
<glyph unicode="&#x2122;" horiz-adv-x="1583" d="M141 1266v170h527v-170h-168v-402h-191v402h-168zM774 864v572h96l230 -242l231 242h94v-572h-190v244l-131 -139h-8l-131 139v-244h-191z" />
<glyph unicode="&#x25fc;" d="M0 0v1434h1434v-1434h-1434z" />
</font>
</defs>
</svg>
