<?xml version="1.0" standalone="no"?>
<!DOCTYPE svg PUBLIC "-//W3C//DTD SVG 1.1//EN" "http://www.w3.org/Graphics/SVG/1.1/DTD/svg11.dtd" >
<svg xmlns="http://www.w3.org/2000/svg" xmlns:xlink="http://www.w3.org/1999/xlink" version="1.1">
<metadata></metadata>
<defs>
<font id="intro_black_italicitalic" horiz-adv-x="1234" >
<font-face units-per-em="2048" ascent="1536" descent="-512" />
<missing-glyph horiz-adv-x="493" />
<glyph horiz-adv-x="0" />
<glyph horiz-adv-x="682" />
<glyph unicode=" "  horiz-adv-x="493" />
<glyph unicode="&#x09;" horiz-adv-x="493" />
<glyph unicode="&#xa0;" horiz-adv-x="493" />
<glyph unicode="!" horiz-adv-x="661" d="M37 123q0 95 73 155t171 60q76 0 122 -39t46 -109q0 -94 -74 -157.5t-172 -63.5q-73 0 -119.5 43t-46.5 111zM119 418l188 1020h408l-242 -1020h-354z" />
<glyph unicode="&#x22;" horiz-adv-x="880" d="M195 913l110 521h277l-154 -521h-233zM565 913l111 521h276l-153 -521h-234z" />
<glyph unicode="#" horiz-adv-x="1480" d="M33 346l51 242h221l78 211h-188l51 243h225l143 390h308l-140 -390h240l143 390h308l-140 -390h156l-51 -243h-191l-76 -211h154l-51 -242h-189l-122 -346h-322l127 346h-233l-121 -346h-324l127 346h-184zM606 580h256l84 229h-258z" />
<glyph unicode="$" horiz-adv-x="1343" d="M50.5 250q-19.5 82 2.5 190h361q-12 -52 19 -87t89 -48l60 279q-84 9 -153 31.5t-127.5 61.5t-91 102t-32.5 145q0 117 49 215t132 163.5t187.5 106t221.5 53.5l29 142h182l-31 -148q90 -13 162 -47.5t122.5 -92.5t67 -137.5t-3.5 -181.5h-350q18 82 -69 121l-54 -252 q75 -11 132.5 -25.5t113.5 -41t92 -62.5t58 -91t22 -126q0 -120 -52 -220.5t-139 -167t-193.5 -107.5t-223.5 -54l-31 -143h-182l31 141q-100 13 -181 47.5t-140.5 93t-79 140.5zM557 983q0 -70 88 -94l51 239q-139 -34 -139 -145zM705 307q70 18 110.5 54.5t40.5 91.5 q0 82 -96 110z" />
<glyph unicode="%" horiz-adv-x="1986" d="M174 1012q0 87 28 162t75 128t108 91t127 56.5t133 18.5q133 0 223 -79.5t90 -223.5q0 -108 -43 -197t-113 -143.5t-153 -84t-168 -29.5q-130 0 -218.5 79.5t-88.5 221.5zM348 0l1010 1432h338l-1012 -1432h-336zM459 1055q0 -48 22 -74.5t56 -28.5q52 0 95.5 47 t43.5 125q0 48 -22 74.5t-56 28.5q-53 0 -96 -46t-43 -126zM1085 262q0 108 42 197t110.5 144t150.5 84.5t168 29.5q131 0 221.5 -79.5t90.5 -223.5q0 -108 -42.5 -197t-111.5 -144t-151 -84.5t-166 -29.5q-131 0 -221.5 79.5t-90.5 223.5zM1366 305q0 -49 24 -76.5 t58 -27.5q55 0 97 45.5t42 126.5q0 48 -23 75t-59 27q-61 0 -100 -46t-39 -124z" />
<glyph unicode="&#x26;" horiz-adv-x="1323" d="M44 335q-4 57 11 114q27 114 99.5 211t177.5 153q-27 27 -43 70q-40 90 -17 192q16 73 62 140.5t114.5 122t165.5 87.5t207 33q94 0 170 -23t129.5 -70.5t70 -120t-8.5 -171.5h-318q10 39 -20 63.5t-76 24.5q-63 0 -109.5 -36t-46.5 -95q0 -28 4 -35q8 -24 34.5 -39.5 t66.5 -15.5h59l-65 -303h-64q-101 0 -164 -65t-63 -144q0 -60 39 -101.5t114 -41.5q81 0 144 49t80 129l102 481h432l-65 -307h-127l-37 -174q-50 -226 -209 -357t-387 -131q-96 0 -174 19.5t-129.5 53t-88.5 79.5t-51.5 98.5t-18.5 109.5z" />
<glyph unicode="'" horiz-adv-x="509" d="M195 913l110 521h277l-154 -521h-233z" />
<glyph unicode="(" horiz-adv-x="774" d="M22.5 238q-0.5 169 36.5 340t109.5 340.5t171.5 310.5t232.5 250t281.5 161l80 -239q-124 -52 -236.5 -179.5t-190 -289.5t-122 -348t-45.5 -352t53.5 -303.5t161.5 -202.5l-154 -211q-128 52 -214.5 161.5t-125 251t-39 310.5z" />
<glyph unicode=")" horiz-adv-x="772" d="M-162 -240q115 46 221.5 170t181.5 284t120 346.5t48.5 354t-45.5 308.5t-151 209l154 208q126 -52 212.5 -161t125.5 -250t39.5 -310.5t-35.5 -340.5t-108.5 -340t-171 -310.5t-232 -251t-283.5 -161.5z" />
<glyph unicode="*" horiz-adv-x="905" d="M193 1133l124 239l172 -74l19 187h264l-65 -187l200 74l29 -237l-203 -43l111 -154l-248 -156l-70 166l-141 -168l-176 160l172 147z" />
<glyph unicode="+" horiz-adv-x="1048" d="M129 600l64 297h258l51 244h276l-51 -244h262l-63 -297h-262l-52 -244h-276l51 244h-258z" />
<glyph unicode="," horiz-adv-x="593" d="M2 117q0 96 74 158.5t174 62.5q73 0 118.5 -41.5t45.5 -112.5q0 -18 -2 -32.5t-6 -25.5t-7 -17.5t-9.5 -16.5t-8.5 -14l-160 -295h-203l93 186q-48 14 -78.5 54t-30.5 94z" />
<glyph unicode="-" horiz-adv-x="972" d="M102 532l64 299h739l-63 -299h-740z" />
<glyph unicode="." horiz-adv-x="595" d="M2 117q0 95 74.5 158t173.5 63q74 0 120 -41.5t46 -112.5q0 -95 -73.5 -158t-172.5 -63q-73 0 -120.5 43t-47.5 111z" />
<glyph unicode="/" horiz-adv-x="1185" d="M-55 2l997 1432h358l-997 -1432h-358z" />
<glyph unicode="0" horiz-adv-x="1329" d="M100.5 254q-22.5 92 1.5 209q9 46 107 504q32 151 129.5 264.5t231 171t282.5 57.5q111 0 201 -33.5t149.5 -96.5t82 -154.5t-2.5 -208.5q-80 -376 -106 -504q-24 -114 -86.5 -208.5t-148.5 -156.5t-190.5 -95.5t-215.5 -33.5t-201.5 33t-150.5 96.5t-82.5 155.5z M453 469q-18 -84 24 -128t127 -44q82 0 143.5 44.5t79.5 127.5q35 156 105 489q18 84 -25 130.5t-125 46.5q-84 0 -145.5 -46t-79.5 -131z" />
<glyph unicode="1" horiz-adv-x="974" d="M-25 0l62 287h223l180 854h-194l63 293h553l-244 -1147h230l-62 -287h-811z" />
<glyph unicode="2" horiz-adv-x="1165" d="M-41 0l16 80l652 723q115 130 130 223q16 96 -95 100q-56 2 -104.5 -34t-61.5 -103h-310q39 218 190 342.5t367 124.5q113 0 197 -42.5t124 -116t43 -165t-43 -199t-136 -208.5l-1 -2q-18 -49 -339 -391h432l-70 -332h-991z" />
<glyph unicode="3" horiz-adv-x="1183" d="M44.5 243.5q-20.5 85.5 0.5 192.5h328q-13 -68 22.5 -104.5t108.5 -36.5q72 0 124 48.5t70 123.5q15 78 -8.5 125t-73 60.5t-112.5 16.5t-127 -7l10 47l301 421h-440l65 304h914l-13 -54l-364 -483q59 -16 102.5 -48t68 -75.5t35.5 -91.5t11 -104q0 -123 -45.5 -233.5 t-126 -193t-199 -130.5t-256.5 -48q-103 0 -186 32.5t-136 92.5t-73.5 145.5z" />
<glyph unicode="4" horiz-adv-x="1241" d="M-25 268l35 162l791 1004h393l-184 -865h125q-10 -45 -31 -146t-33 -155h-125l-57 -268h-338l57 268h-633zM444 555h250l49 229l70 244h-4z" />
<glyph unicode="5" horiz-adv-x="1196" d="M72 436h325q-13 -70 21 -104.5t108 -34.5q83 0 134.5 59t64.5 144q5 38 -6 66.5t-33 46t-57 29.5t-73 17t-87 7q-67 3 -182.5 -4t-134.5 -7l165 779h895l-65 -312h-590l-39 -178q78 4 119 4q102 -2 180 -21t141.5 -59t97.5 -112.5t34 -173.5q0 -164 -76.5 -303 t-221 -223.5t-327.5 -84.5q-210 0 -323 128t-70 337z" />
<glyph unicode="6" horiz-adv-x="1263" d="M41 362q0 197 176 420l539 664h407l-415 -518q18 6 20 6q191 0 296 -94.5t105 -270.5q0 -146 -52.5 -260.5t-144 -186.5t-212 -109.5t-260.5 -37.5q-210 0 -334.5 98.5t-124.5 288.5zM416 424q0 -133 151 -133q106 0 165 61t59 162q0 133 -148 133q-107 0 -167 -61.5 t-60 -161.5z" />
<glyph unicode="7" horiz-adv-x="1130" d="M33 0l696 1110h-555l70 324h1054l-12 -54l-878 -1380h-375z" />
<glyph unicode="8" horiz-adv-x="1269" d="M47 373q0 127 72 243t203 201q-52 76 -52 187q0 82 38.5 162t107 145.5t175 106t230.5 40.5q189 0 288 -95.5t99 -232.5q0 -169 -159 -315q74 -66 101.5 -160t6.5 -198q-16 -91 -68 -176t-132.5 -154t-197.5 -110.5t-251 -41.5q-116 0 -206 32.5t-144.5 89t-82.5 126.5 t-28 150zM422 430q0 -62 38.5 -103.5t112.5 -41.5q101 0 164.5 68t63.5 153q0 64 -38 106.5t-112 42.5q-102 0 -165.5 -70t-63.5 -155zM586 1022q0 -46 31 -76.5t90 -30.5q80 0 127 47.5t47 106.5q0 45 -30.5 76t-88.5 31q-81 0 -128.5 -47.5t-47.5 -106.5z" />
<glyph unicode="9" horiz-adv-x="1261" d="M150 874q0 146 52.5 261t144 187.5t211 110t259.5 37.5q210 0 334.5 -98.5t124.5 -288.5q0 -122 -44.5 -217.5t-139.5 -212.5l-529 -653h-407l432 518q-2 0 -12 -3t-15 -3q-196 0 -303.5 93t-107.5 269zM524 934q0 -135 150 -135q113 0 170 60.5t57 162.5 q0 64 -37.5 98.5t-111.5 34.5q-113 0 -170.5 -59.5t-57.5 -161.5z" />
<glyph unicode=":" horiz-adv-x="651" d="M25 117q0 95 74 158t173 63q74 0 120 -41.5t46 -112.5q0 -95 -73.5 -158t-171.5 -63q-73 0 -120.5 43t-47.5 111zM156 731q0 95 74 158t171 63q75 0 121.5 -41t46.5 -112q0 -96 -72.5 -158.5t-172.5 -62.5q-73 0 -120.5 42.5t-47.5 110.5z" />
<glyph unicode=";" horiz-adv-x="649" d="M25 117q0 96 73.5 158.5t173.5 62.5q73 0 118.5 -41.5t45.5 -112.5q0 -18 -2 -32.5t-6 -25.5t-7 -17.5t-9.5 -16.5t-8.5 -14l-159 -295h-203l92 186q-48 14 -78 53.5t-30 94.5zM156 731q0 95 74 158t171 63q75 0 121.5 -41t46.5 -112q0 -96 -72.5 -158.5t-172.5 -62.5 q-73 0 -120.5 42.5t-47.5 110.5z" />
<glyph unicode="&#x3c;" horiz-adv-x="1153" d="M82 575q9 49 28.5 140.5t24.5 115.5l998 381l-66 -305l-557 -205l471 -202l-66 -305z" />
<glyph unicode="=" horiz-adv-x="1140" d="M74 313l61 287h875l-62 -287h-874zM170 766l61 287h875l-62 -287h-874z" />
<glyph unicode="&#x3e;" horiz-adv-x="1144" d="M68 195l65 305l557 202l-471 205l66 305l833 -381q-5 -24 -24.5 -115.5t-28.5 -140.5z" />
<glyph unicode="?" horiz-adv-x="1112" d="M158 981q43 223 192.5 344t360.5 121q189 0 295 -100t106 -256q0 -75 -23 -139.5t-59.5 -111t-81 -88t-89.5 -79.5t-83 -76t-63.5 -87t-28.5 -103h-354q8 75 39 139t72 106.5t90 86.5t92 80t78.5 85.5t48.5 104.5q11 51 -25.5 81.5t-91.5 30.5q-59 -2 -105.5 -36.5 t-62.5 -102.5h-307zM244 123q0 96 74.5 158.5t175.5 62.5q74 0 118.5 -41.5t44.5 -112.5q0 -95 -71.5 -158t-171.5 -63q-75 0 -122.5 42.5t-47.5 111.5z" />
<glyph unicode="@" horiz-adv-x="1933" d="M32 235q1 121 36 257q65 258 223 457t390.5 311t504.5 112q199 0 347 -61.5t230.5 -175t104.5 -274.5t-31 -361q-33 -138 -100 -247t-150 -174t-171 -98.5t-173 -33.5q-93 0 -141 48t-31 132l2 12q-56 -76 -137.5 -119.5t-169.5 -48.5q-89 -2 -158 25t-111 75.5 t-63.5 115t-20.5 144t23 161.5q43 171 151 292.5t253.5 179t314.5 54.5q96 -5 207 -47.5t176 -102.5l-139 -561q-32 -110 20 -110q55 0 115.5 87t97.5 216q101 334 -31.5 499.5t-467.5 165.5q-197 0 -373.5 -83.5t-302.5 -237.5t-174 -352q-36 -130 -36 -241t33.5 -193.5 t99 -138t155.5 -77.5t208.5 -8t253.5 66l-49 -197q-132 -44 -253.5 -55.5t-222 9t-183.5 67.5t-139.5 122.5t-87.5 171.5t-30 217zM775.5 413.5q0.5 -36.5 11.5 -67.5t40.5 -48t73.5 -15q69 1 122 52t71 122q24 90 61 248q-56 26 -115 26q-88 -6 -156.5 -68.5t-97.5 -170.5 q-11 -42 -10.5 -78.5z" />
<glyph unicode="A" horiz-adv-x="1431" d="M-143 0l10 51l938 1397h188l355 -1397l-11 -51h-387l-51 197l-528 -2l-123 -195h-391zM555 500h297l-76 338z" />
<glyph unicode="B" horiz-adv-x="1380" d="M31 8l305 1432h633q170 0 270 -96.5t100 -256.5q0 -104 -53 -194t-131 -141q60 -34 91.5 -99t31.5 -143q0 -98 -39 -188.5t-109 -160t-176.5 -111.5t-232.5 -42h-690zM473 334h291q51 0 85.5 31.5t47.5 78.5q6 21 6 40q1 31 -13 60q-22 48 -75 48h-289zM584 858h233 q50 0 88.5 40.5t50.5 88.5q4 18 4 35q0 30 -14 54q-20 38 -74 38h-233z" />
<glyph unicode="C" horiz-adv-x="1550" d="M102 402q-16 67 -16 144q0 82 18 177q32 146 98.5 267t153 204.5t192.5 141.5t218 85t229 27q91 0 174.5 -19.5t158 -62t126.5 -104.5t80 -154q21 -71 22 -154q0 -24 -2 -49h-346q-8 78 -47.5 125t-96.5 63.5t-140 16.5q-88 0 -165 -35t-132.5 -95t-94 -136t-57.5 -162 q-9 -43 -10 -82q0 -100 59 -172q81 -100 234 -100q121 0 216.5 56.5t147.5 170.5h361q-41 -119 -108 -215.5t-146 -161.5t-171.5 -109t-185 -63.5t-186.5 -19.5q-140 0 -259.5 46.5t-206 139t-118.5 230.5z" />
<glyph unicode="D" horiz-adv-x="1495" d="M29 0l305 1432h547q142 0 254 -48.5t179 -130.5t101.5 -183t34.5 -214q0 -127 -28.5 -246t-94 -231t-161.5 -195.5t-242 -133.5t-324 -50h-571zM473 338h168q78 0 147.5 27t120 72.5t88 104.5t56 125t18.5 132q0 50 -6.5 90.5t-25 80t-47.5 66.5t-77 43.5t-112 16.5h-168 z" />
<glyph unicode="E" horiz-adv-x="1169" d="M29 0l305 1434h897l-66 -308h-520l-47 -223h479l-69 -328h-480l-55 -251h539l-68 -324h-915z" />
<glyph unicode="F" horiz-adv-x="1118" d="M29 0l305 1434h893l-70 -326h-520l-68 -317h459l-70 -328h-458l-99 -463h-372z" />
<glyph unicode="G" horiz-adv-x="1564" d="M98 394q-14 66 -14 141q0 84 18 180q42 187 132.5 331.5t212 231.5t260.5 130.5t290 43.5q87 0 166.5 -17.5t150.5 -56.5t122.5 -95.5t81.5 -140t30 -184.5h-358q-6 45 -28 77t-58.5 49t-79.5 24.5t-98 7.5q-91 0 -168.5 -33.5t-131.5 -92.5t-90 -131.5t-53 -156.5 q-13 -56 -13 -107q0 -22 2 -42q8 -69 37 -120t92 -80t155 -29q115 0 200 45.5t156 154.5h-305l57 289h676q-16 -120 -44 -220t-83 -196q-62 -109 -147.5 -191t-182 -130t-196.5 -71t-203 -23q-141 0 -260.5 46t-206.5 137.5t-119 228.5z" />
<glyph unicode="H" horiz-adv-x="1501" d="M29 0l305 1434h373l-111 -519h446l111 519h375l-305 -1434h-375l123 573h-447l-123 -573h-372z" />
<glyph unicode="I" horiz-adv-x="929" d="M-29 0q13 59 31.5 151t32.5 152h182l176 827h-166l66 304h704l-65 -304h-166l-176 -827h182q-14 -60 -32 -152t-31 -151h-738z" />
<glyph unicode="J" horiz-adv-x="1277" d="M17 264q-11 45 -11 96q0 53 12 113l39 186h349l-39 -180q-5 -24 -5 -44q0 -51 32 -81q44 -43 130 -43q83 0 140 42t75 126l142 656h-211l61 299h586l-205 -961q-50 -239 -215.5 -366t-443.5 -127q-111 0 -201.5 33t-151 96t-83.5 155z" />
<glyph unicode="K" horiz-adv-x="1486" d="M29 0l305 1434h381l-119 -566q34 -1 61.5 0t53 7t44 10.5t38.5 19t33 24.5t31 35t29 41.5t30 53t31 61.5t36 74q30 65 67 112.5t87 81.5q49 36 111 52q56 15 128 15q6 -1 14 -1q80 -2 175 -22l-56 -252q-24 4 -44 4q-41 0 -73 -16q-46 -24 -77 -91q-13 -27 -43 -91 t-40 -83.5t-34 -62.5t-41 -63t-43.5 -47t-58.5 -50l297 -625l-13 -55h-405l-223 563l-187 -8l-112 -555h-383z" />
<glyph unicode="L" horiz-adv-x="1069" d="M29 0l305 1434h375q-69 -330 -96.5 -460t-57.5 -265.5t-80 -372.5h518l-71 -336h-893z" />
<glyph unicode="M" horiz-adv-x="1710" d="M29 0l305 1438h133l438 -621l699 621h133l-305 -1438h-375l141 662l-375 -320h-43l-229 346l-148 -688h-374z" />
<glyph unicode="N" horiz-adv-x="1550" d="M31 0l305 1440h117l594 -721l153 715h375l-305 -1438h-96l-609 766l-159 -762h-375z" />
<glyph unicode="O" horiz-adv-x="1636" d="M90 561q0 171 54.5 319.5t146 253.5t210.5 180t248 111.5t259 36.5q120 0 226 -38.5t188 -111t129.5 -187.5t47.5 -257q0 -190 -65 -354t-181.5 -284t-289.5 -188.5t-379 -68.5q-123 0 -230 38.5t-188.5 110.5t-128.5 185.5t-47 253.5zM477 633q-1 -17 -1 -33 q0 -124 76 -194q86 -78 212 -78q63 0 127 19.5t123 59t104.5 95t73 133t27.5 166.5q0 143 -81.5 224t-203.5 81q-81 0 -158 -31t-141.5 -88.5t-107 -149t-50.5 -204.5z" />
<glyph unicode="P" horiz-adv-x="1347" d="M29 2q52 240 152.5 717t152.5 717q2 0 317 1h175q140 0 141 -1q84 0 153 -21t117 -58.5t81 -88.5t48 -111.5t15 -126t-15 -133.5q-19 -83 -49.5 -155.5t-83 -142t-121.5 -118t-168 -78.5t-219 -30h-244l-78 -371h-374zM543 698h252q81 0 138.5 62t76.5 147q6 30 6 57 q0 47 -18 86q-28 60 -101 60h-264z" />
<glyph unicode="Q" horiz-adv-x="1638" d="M90 573q0 187 71 352.5t193 283t291 185.5t359 68q121 0 227.5 -38.5t189 -111t130.5 -187.5t48 -257q0 -171 -55.5 -306t-165.5 -267l95 -256l-13 -55h-338l-43 106q-93 -68 -191 -90q-89 -20 -196 -20h-20q-164 3 -294.5 73t-209 205.5t-78.5 314.5zM475 633 q0 -146 82.5 -225.5t204.5 -79.5q79 0 157.5 31.5t145 88.5t108 149.5t41.5 203.5q0 147 -82 226t-206 79q-80 0 -159 -32t-144.5 -89.5t-106.5 -149.5t-41 -202z" />
<glyph unicode="R" horiz-adv-x="1421" d="M29 0q52 240 152.5 718t152.5 718q2 0 316 1h175q140 0 140 -1q101 0 180.5 -28.5t128 -77.5t78.5 -114t32 -138v-18q0 -64 -12 -132q-33 -138 -101.5 -241.5t-199.5 -176.5l184 -463l-12 -47h-387l-160 451h-196l-97 -451h-374zM557 756h260q86 0 142.5 68t56.5 149 q0 59 -30.5 98t-92.5 39h-260z" />
<glyph unicode="S" horiz-adv-x="1331" d="M41 267q-7 32 -7 68q0 49 13 105h356q-3 -14 -4 -28q1 -50 49 -80q60 -39 152 -39q97 0 175.5 43.5t78.5 116.5q0 39 -19 64.5t-64 37.5t-67 15t-78 7q-5 1 -8 1q-71 5 -133.5 18.5t-121 40.5t-100 64.5t-66.5 94t-25 126.5q0 134 57 240.5t152.5 171.5t212.5 98.5 t246 33.5q107 0 198.5 -30t157.5 -87q68 -57 94 -149q13 -46 13 -97q0 -50 -13 -106h-350q1 8 1 16q-1 59 -47 91q-52 36 -132 37q-84 0 -149.5 -44t-65.5 -114q0 -53 46 -76t148 -35q74 -8 129.5 -17.5t115.5 -26.5t101.5 -42.5t76.5 -61.5t52 -87.5t17 -116.5 q0 -140 -54 -247.5t-150 -173.5t-220.5 -99t-273.5 -33q-93 0 -175 18.5t-149.5 55.5t-110.5 93.5t-59 132.5z" />
<glyph unicode="T" horiz-adv-x="1132" d="M143 1106q7 35 32 149t38 179h1065q-13 -65 -38 -179t-32 -149h-350l-235 -1106h-363l236 1106h-353z" />
<glyph unicode="U" horiz-adv-x="1441" d="M108 298q-6 32 -5 67q0 51 12 108l204 961h371l-203 -953q-5 -22 -5 -41q0 -54 40 -86q54 -44 142 -43q87 0 155.5 43t87.5 127l203 953h373l-205 -961q-26 -117 -94 -212t-161.5 -155t-203.5 -92t-225 -32q-91 0 -172 20t-147 60t-109.5 99t-57.5 137z" />
<glyph unicode="V" horiz-adv-x="1388" d="M154 1378l12 56h391l90 -426l41 -375h6l197 375l266 426h408l-13 -56l-897 -1392h-174z" />
<glyph unicode="W" horiz-adv-x="1929" d="M162 1378l12 56h393l51 -392l21 -417h6l408 784h153l86 -784h6l189 417l217 392h393l-12 -56l-780 -1392h-199l-137 655h-6l-377 -655h-209z" />
<glyph unicode="X" horiz-adv-x="1411" d="M-109 0l13 53l610 713l-281 612l13 56h397l148 -392h8l315 392h412l-13 -56l-536 -628l305 -697l-12 -53h-398l-174 438h-12l-352 -438h-443z" />
<glyph unicode="Y" horiz-adv-x="1304" d="M147 1378l13 56h397l162 -476h14l363 476h397l-12 -56l-660 -833l-112 -545h-373l121 567z" />
<glyph unicode="Z" horiz-adv-x="1253" d="M-78 0l12 53l801 1055h-526l70 326h1075l-13 -56l-772 -1044h557q-47 -218 -71 -334h-1133z" />
<glyph unicode="[" horiz-adv-x="714" d="M-74 -406l424 1999h500l-59 -280h-177l-299 -1409h177l-66 -310h-500z" />
<glyph unicode="\" horiz-adv-x="1144" d="M227 1434h359l387 -1432h-359z" />
<glyph unicode="]" horiz-adv-x="712" d="M-133 -406l65 310h177l299 1409h-177l60 280h500l-424 -1999h-500z" />
<glyph unicode="^" horiz-adv-x="1189" d="M137 809l525 645h249l250 -645h-303l-137 350l-281 -350h-303z" />
<glyph unicode="_" horiz-adv-x="1263" d="M-78 -324l64 299h1032l-64 -299h-1032z" />
<glyph unicode="`" horiz-adv-x="688" d="M391 1335l6 31l346 115l91 -371l-9 -33h-282z" />
<glyph unicode="a" d="M30 345q2 77 17 163q40 166 139.5 281.5t238.5 169.5q132 51 290 51h18q219 -3 414 -90l-129 -605q-6 -31 -6 -54q0 -25 8 -41q14 -30 76 -30l-39 -188q-37 -8 -74 -12t-83 -6q-7 0 -14 -1q-38 -1 -70 7q-37 8 -68 26q-30 18 -42 52q-7 20 -8 44q0 18 4 38 q-55 -79 -142.5 -122.5t-178.5 -43.5q-90 2 -158.5 29.5t-108.5 75.5q-42 47 -64 113q-21 61 -21 133q1 5 1 10zM391 500q-10 -44 -11 -79q0 -45 18 -76q30 -54 113 -54h3q75 0 127 58t78 155l53 215q-60 14 -106 14h-15q-93 -5 -160.5 -64.5t-99.5 -168.5z" />
<glyph unicode="b" horiz-adv-x="1187" d="M4 61l303 1424h320l-133 -623q71 77 137.5 107t161.5 30q77 0 142.5 -29.5t115.5 -91.5q49 -63 63 -160q4 -32 5 -67q0 -74 -19 -164q-25 -112 -75.5 -201.5t-116.5 -149t-148 -98.5q-82 -38 -168 -54q-72 -13 -148 -13h-30q-219 3 -410 90zM389 274q74 -18 119 -18 q188 0 242 229q12 44 12 82q0 35 -12 65q-12 31 -41.5 49.5t-75.5 18.5q-53 0 -97.5 -36t-68.5 -83t-33 -96z" />
<glyph unicode="c" horiz-adv-x="1153" d="M39 438q11 119 48 214t90.5 158.5t125 108t146.5 66.5t161 31q26 1 51 1q77 1 142 -13q87 -18 157 -65t108 -133q36 -81 36 -192v-12h-330q-7 57 -45.5 85t-95.5 28q-89 0 -164.5 -73t-75.5 -193q0 -81 42.5 -125.5t105.5 -44.5q58 0 108.5 30.5t81.5 93.5h332 q-33 -112 -95.5 -196t-142 -132t-167 -71.5t-181.5 -23.5q-96 0 -179.5 30t-145 86t-92.5 144q-23 67 -23 146q0 25 2 52z" />
<glyph unicode="d" d="M32 345q2 77 17 163q19 100 64.5 191t112.5 163t160 115t198 43q191 0 237 -119l129 606h324l-254 -1192q-11 -54 -11 -75q0 -6 1 -9q10 -29 69 -30l-39 -189q-34 -7 -62.5 -11.5t-67.5 -8.5q-27 -2 -50 -2h-19q-30 2 -60.5 10.5t-48.5 24.5q-19 17 -28 45q-5 16 -5 35 q0 15 3 32l3 13q-55 -79 -143 -122.5t-179 -43.5q-90 2 -158.5 29.5t-108.5 75.5q-42 47 -64 113q-21 61 -21 133q1 5 1 10zM383 446q-1 -10 -1 -19q0 -60 29 -95q33 -41 101 -41q66 0 117.5 42.5t78 104t31.5 131.5q1 10 1 20q0 57 -26 97q-30 46 -89 47q-106 0 -170 -85 t-72 -202z" />
<glyph unicode="e" horiz-adv-x="1114" d="M33 375q0 121 37.5 225.5t99.5 178t143.5 127t169.5 80.5t176 30h23q60 0 114 -8q64 -10 122.5 -35t95.5 -65q36 -41 52 -100q7 -25 7 -54q0 -39 -12 -84q-23 -98 -92 -168t-154 -102.5t-182 -37.5q-19 -1 -38 -1q-127 0 -226 53q-1 -10 -1 -18q0 -38 14 -66 q17 -34 52 -52t78 -24q33 -5 73 -4h25q88 5 183 26t155 50l-41 -260q-84 -45 -173 -63t-204 -23q-25 -1 -48 -1q-197 -1 -316 89q-133 100 -133 307zM424 606q34 -18 86 -28q37 -8 72 -8q13 0 26 1q45 2 82 31t37 74q-1 38 -37 56q-33 16 -73 16h-9q-122 -11 -184 -142z" />
<glyph unicode="f" horiz-adv-x="884" d="M-193 -518l64 250q21 -2 40 -2q72 0 105 24q43 31 64 133l182 854h-182l51 246h186l25 105q27 124 84.5 211t130 131t165.5 60q60 10 120 10q32 0 64 -2q92 -9 194 -36l-88 -258q-50 17 -96 23q-21 3 -43 3q-26 0 -53 -4q-51 -7 -87.5 -44t-50.5 -103l-20 -96h288 l-51 -246h-289l-182 -858q-91 -418 -460 -418q-75 0 -161 17z" />
<glyph unicode="g" horiz-adv-x="1193" d="M-70 -428l86 256q61 -33 128.5 -54.5t145.5 -27.5q18 -1 35 -1q58 0 109 15q65 18 118 78t75 158l26 125q-95 -137 -288 -137q-77 0 -144.5 29.5t-120 91.5t-67.5 159q-5 34 -5 73q0 71 17 157q26 113 77 203t116.5 148.5t148.5 97t169 53.5q76 14 159 14h22 q215 -3 410 -90l-197 -924q-33 -159 -114 -275t-188 -175t-230 -77q-49 -7 -99 -7q-75 0 -151 16q-126 28 -238 94zM383 414q2 -40 13.5 -72t42 -52t75.5 -20q41 0 76 22t59.5 58t40 72t25.5 74l55 211q-64 18 -121 18q-191 0 -256 -229q-10 -35 -10 -70v-12z" />
<glyph unicode="h" horiz-adv-x="1269" d="M-4 0l317 1497h349l-134 -627q53 70 135.5 105t170.5 35q84 0 145.5 -22t96.5 -60q36 -40 52 -96q15 -52 15 -110q0 -6 -1 -11q-2 -65 -18 -144l-55 -256q-5 -28 -5 -48q0 -24 8 -35q14 -21 75 -21l-41 -197q-90 -23 -168 -24h-6q-74 0 -132 22q-62 24 -88 86 q-14 34 -14 79q0 36 9 79l67 315q7 31 7 56q0 42 -20 69q-32 43 -93 43q-65 0 -127 -46.5t-78 -127.5l-119 -561h-348z" />
<glyph unicode="i" horiz-adv-x="589" d="M-4 0l207 973h348l-207 -973h-348zM229 1212q0 106 74 168t168 62h7q67 0 114 -37q49 -39 49 -115q0 -74 -37.5 -126t-90.5 -73.5t-114 -21.5q-73 0 -121.5 35t-48.5 108z" />
<glyph unicode="j" horiz-adv-x="585" d="M-301 -518l65 256q23 -2 42 -2q69 0 102 22q42 28 63 129l234 1096h344l-236 -1100q-24 -111 -67 -192.5t-99.5 -129t-127.5 -73.5q-67 -24 -142 -24h-9q-80 2 -169 18zM225 1212q0 55 22.5 100.5t58.5 73t79.5 42t87.5 14.5q71 0 117.5 -39t46.5 -113 q0 -110 -71.5 -165.5t-172.5 -55.5q-68 0 -118 36t-50 107z" />
<glyph unicode="k" horiz-adv-x="1175" d="M-4 0l317 1497h346l-176 -844h41q60 0 108 19t79 49t55.5 76.5t38.5 90t26 101.5h330q-27 -165 -99.5 -287.5t-215.5 -203.5l162 -463l-9 -35h-340l-124 383q-29 -10 -78 -10l-35 2l-80 -375h-346z" />
<glyph unicode="l" horiz-adv-x="659" d="M50 246q1 64 18 145l235 1106h344l-235 -1104q-9 -40 -9 -69q0 -45 21 -63.5t63 -18.5q28 0 66 8l-45 -260q-71 -12 -130 -15q-18 -1 -35 -1q-40 0 -77 5q-53 7 -92.5 25.5t-68 51t-42.5 78.5q-13 43 -13 103v9z" />
<glyph unicode="m" horiz-adv-x="1894" d="M33 0l145 686q9 33 9 56q0 20 -7 32q-15 26 -78 27l41 190q48 16 104 24q41 6 83 6q16 0 32 -1q60 -3 105.5 -20t69.5 -58q16 -27 16 -64q0 -18 -4 -38q52 82 139 126t182 44q232 0 273 -172q65 80 161.5 126t192.5 46q83 0 140 -22.5t87 -60.5t40 -96q6 -36 6 -74 q0 -23 -2 -47q-6 -63 -25 -143l-55 -256q-6 -30 -6 -52q0 -24 8 -36q14 -24 77 -24l-41 -189q-92 -24 -168 -27h-19q-65 0 -121 17q-64 20 -90 81q-15 34 -14 80q0 36 9 79l70 327q7 31 7 57q0 42 -18 68q-30 44 -84 43q-53 0 -103.5 -45.5t-66.5 -122.5q-71 -352 -120 -567 h-340l120 567q7 30 7 55q-1 43 -21 70q-32 43 -92 43q-58 0 -111 -46t-71 -128l-119 -561h-348z" />
<glyph unicode="n" horiz-adv-x="1298" d="M31 0l145 686q8 43 9.5 69.5t-17.5 37.5q-15 9 -48 9q-9 0 -20 -1l41 190q26 6 53.5 11t61.5 9q35 5 66 5h12q24 0 52 -2q34 -2 60 -9.5t50 -20t36 -32.5t18 -48q3 -11 3 -23q0 -19 -6 -41q62 80 146 125t175 45q105 0 175 -34t99.5 -93t35.5 -140q1 -15 1 -31 q0 -68 -20 -145l-57 -266q-9 -31 -9 -54q1 -19 7 -32q14 -29 71 -29l-36 -178q-47 -12 -91 -18q-45 -8 -90 -8h-5q-42 0 -77 8q-37 8 -68.5 26t-48.5 48t-23 72q-2 13 -3 28q0 32 10 72l72 331q7 29 7 53q0 43 -22 71q-34 44 -96 44h-11q-55 -1 -111 -45q-62 -50 -78 -129 l-119 -561h-350z" />
<glyph unicode="o" horiz-adv-x="1196" d="M39 393q0 150 51.5 271.5t139.5 198.5t202 117q109 38 232 38h12q88 -2 166 -29.5t140.5 -77.5t99 -130.5t36.5 -180.5q0 -200 -88.5 -345t-234.5 -214q-136 -64 -304 -64h-24q-88 2 -164 29t-135.5 77t-94 130t-34.5 180zM375 455v-14q-1 -73 37 -113q42 -44 112 -45h14 q94 0 158 63q70 68 76 193v15q0 73 -36 113q-40 44 -109 46h-12q-89 -1 -160 -67q-76 -72 -80 -191z" />
<glyph unicode="p" horiz-adv-x="1216" d="M-94 -504l252 1190q1 5 3 14q5 25 7 36.5t1.5 27t-7.5 21.5t-21.5 11t-38.5 5l41 190q36 8 71.5 13t79.5 8h22q32 0 58 -6q36 -7 64.5 -21.5t39.5 -45.5q6 -16 6 -36q0 -18 -5 -39l-2 -8q56 77 141 120.5t173 43.5q75 -1 135.5 -23t100.5 -58.5t68 -86.5t38.5 -107.5 t12.5 -120.5v-17q0 -56 -11 -111q-21 -100 -67 -190.5t-113 -163t-160.5 -115.5t-198.5 -43q-87 0 -153.5 33t-80.5 104l-133 -625h-323zM453 436q-1 -11 -1 -21q0 -57 24 -95q29 -44 87 -44q110 0 176.5 83t71.5 200q1 10 1 19q0 63 -30 100q-31 39 -94 39h-12 q-97 0 -157.5 -84.5t-65.5 -196.5z" />
<glyph unicode="q" horiz-adv-x="1198" d="M36 264q-6 36 -6 79q0 68 15 151q32 141 103 245t166.5 162t201.5 85q98 24 205 24h16q216 -3 414 -90l-301 -1424h-324l133 625q-95 -137 -292 -137q-78 0 -145 29.5t-119 91.5t-67 159zM393 496q-9 -35 -9 -67q0 -49 21 -91q34 -68 121 -68q41 0 75.5 22t57.5 57.5 t37 72.5t21 74l45 211q-62 18 -119 18q-191 0 -250 -229z" />
<glyph unicode="r" horiz-adv-x="954" d="M18 0q41 199 73 344t73 344q8 38 9 63t-15.5 37.5t-57.5 12.5l41 190q48 11 98 17q38 4 79 4h28q58 -2 100 -16t68 -50q20 -28 20 -68q0 -11 -2 -22q45 78 128 120t174 42h11q112 0 175 -60l-129 -282q-59 49 -147 49h-13q-94 -5 -168 -63.5t-98 -165.5l-105 -496h-342z " />
<glyph unicode="s" horiz-adv-x="1048" d="M4 313h340q-3 -11 -3 -21q0 -29 22 -45q29 -22 77 -22q53 0 93 24t40 68q0 14 -5.5 24.5t-13.5 16.5t-22 10.5t-24.5 6.5t-28.5 4q-50 5 -89 11t-87 17t-82.5 29t-65.5 43.5t-47 63.5t-16 86q0 93 46 168.5t121 122t165.5 71.5t185.5 25q85 0 159.5 -22t128.5 -64 q54 -40 76 -106q11 -34 11 -71q0 -35 -10 -73h-305v7q0 31 -28 49q-30 19 -71 18h-8q-44 -2 -78.5 -19.5t-40.5 -46.5q-5 -20 1 -33.5t21.5 -20t31.5 -10t36 -5.5q7 -1 11 -1q45 -5 73.5 -8.5t69 -10.5t66.5 -14.5t58 -21t51 -29t37 -38.5q19 -22 26 -50q8 -30 8 -67 q0 -35 -10 -76q-36 -162 -177.5 -247t-345.5 -85q-75 0 -135 8t-117.5 30.5t-92.5 59.5q-34 37 -50 99q-8 33 -9 71q0 35 7 74z" />
<glyph unicode="t" horiz-adv-x="925" d="M61 764l48 223h188l104 305h289l-65 -305h301l-52 -246h-301l-73 -344q-5 -23 -5 -43q-1 -24 7 -43q14 -34 44 -48t72 -16q9 0 18 -1q34 0 68 6q43 8 87 22l-27 -260q-78 -20 -150 -30q-69 -10 -136 -10h-6q-70 0 -126 16t-101.5 46t-70.5 79t-32 117q-2 17 -2 35 q0 55 16 122l75 352z" />
<glyph unicode="u" horiz-adv-x="1241" d="M54 286q4 63 22 142l119 559h352l-119 -559q-10 -38 -10 -68q0 -37 16 -60q28 -42 86 -42q64 0 121 48.5t74 127.5l116 553h349l-148 -696q-9 -29 -9 -49q1 -14 5 -24q10 -24 66 -23l-39 -191q-26 -6 -52 -11t-59 -9.5t-63 -5.5t-62.5 0t-57.5 8t-48.5 19t-34.5 32 q-12 21 -18 47q-2 10 -2 21q0 19 6 42q-54 -75 -142 -118t-176 -43q-86 0 -146 22.5t-92 61.5q-34 38 -46 96q-9 42 -9 87q0 16 1 33z" />
<glyph unicode="v" horiz-adv-x="1208" d="M86 811l39 180q38 9 72 15q35 6 71 8q20 1 38 1q15 0 29 -1q31 -2 61.5 -8.5t52.5 -19.5t41 -32t27 -47q8 -27 11 -63q1 -8 1 -16q0 -30 -9 -66l-69 -330q-7 -27 -7 -51q0 -41 20 -72q32 -49 105 -49q67 0 115.5 63t70.5 155q22 90 32 196q8 84 8 155q-1 19 -1 35 q-2 84 -10 131h342q13 -94 15 -188v-26q-1 -83 -11 -169q-12 -100 -39 -189t-76.5 -169.5t-117 -138t-166 -91.5t-219.5 -34q-110 0 -195.5 26.5t-143.5 81t-77 137.5q-9 38 -9 81q0 53 13 116l56 264q9 30 9 53q0 20 -7 33q-14 29 -72 29z" />
<glyph unicode="w" horiz-adv-x="1730" d="M88 811l39 180q38 9 73 15q34 6 71 8q21 1 39 1q15 0 29 -1q31 -2 61 -8.5t52.5 -19.5t41.5 -32t27 -47q8 -27 11 -63q1 -8 1 -16q0 -30 -9 -66l-69 -330q-8 -36 -8 -65q1 -35 13 -61q24 -46 81 -46q113 0 147 172l119 555h328l-119 -555q-11 -46 -11 -79q-1 -31 9 -51 q20 -42 78 -42t103 44.5t70.5 115t41.5 154.5t20 166q3 60 3 111v37q-2 64 -9 99h328q11 -84 12 -174v-13q1 -84 -11 -176q-12 -100 -38 -192t-73 -175t-111 -143.5t-157 -94.5q-85 -31 -188 -31h-18q-107 2 -174.5 36.5t-97.5 120.5q-60 -82 -152.5 -120.5t-191.5 -38.5 q-198 0 -294 118q-65 81 -65 199q0 55 14 119l58 274q9 30 9 53q0 20 -7 33q-14 29 -76 29z" />
<glyph unicode="x" horiz-adv-x="1101" d="M-106 0l8 39l438 485l-193 424l9 39h331l97 -223h8l184 223h357l-9 -39l-393 -446l227 -463l-8 -39h-340l-112 260h-9l-217 -260h-378z" />
<glyph unicode="y" horiz-adv-x="1249" d="M-6 -428l69 260q59 -33 127.5 -55.5t147.5 -28.5q19 -1 38 -1q57 0 108 13q67 19 120.5 78.5t73.5 157.5l29 139q-42 -70 -114.5 -109.5t-150.5 -39.5q-340 0 -340 322q0 75 19 169l43 205q6 30 6 51q0 22 -7 33q-14 22 -77 22l43 197q71 17 133 21h31q45 0 88 -8 q57 -10 91 -41t50 -84q7 -24 7 -53q0 -36 -11 -81l-55 -258q-8 -43 -8 -77q0 -130 118 -130q139 0 191 220l104 493h344l-211 -991q-28 -132 -88.5 -235.5t-141 -166.5t-178 -97.5t-199.5 -34.5q-2 -1 -4 -1q-100 0 -200 27q-103 28 -196 84z" />
<glyph unicode="z" horiz-adv-x="995" d="M-72 0l9 39l524 661h-346q11 48 29 143.5t30 143.5h832l-9 -39l-510 -639h377l-65 -309h-871z" />
<glyph unicode="{" horiz-adv-x="696" d="M15.5 -195.5q-0.5 53.5 15.5 123.5l88 418q6 41 5.5 77.5t-22.5 61.5t-63 25l55 256q67 4 100 43.5t48 110.5l80 376q15 67 39 118.5t48 85t65.5 56.5t71.5 35t86.5 17.5t89 6.5t99.5 1h17l-54 -246q-122 4 -141 -86l-84 -397q-19 -87 -86 -155.5t-158 -94.5 q86 -29 121 -97.5t15 -162.5l-93 -434q-11 -53 19.5 -67t89.5 -5l-59 -277h-21q-70 0 -103.5 1t-87 7t-78 18t-55 36t-39 59.5t-9 89z" />
<glyph unicode="|" horiz-adv-x="600" d="M-23 -186l351 1646h315l-350 -1646h-316z" />
<glyph unicode="}" horiz-adv-x="698" d="M-133 -406l59 277q118 -20 137 72l93 434q20 95 84 163t161 97q-79 27 -117.5 95t-19.5 155l84 397q11 52 -17.5 70t-86.5 16l53 246q171 0 232 -12q127 -25 155 -123q19 -70 -6 -185l-80 -376q-8 -43 -8 -76t22 -54t68 -24l-55 -256q-62 0 -99 -48t-51 -116l-88 -418 q-14 -62 -31.5 -110.5t-43.5 -83t-48 -59t-61 -40t-65 -24t-77.5 -12.5t-80.5 -4.5t-91 -0.5h-22z" />
<glyph unicode="~" horiz-adv-x="1288" d="M80 627q47 99 120.5 169.5t158 102.5t177 26t175.5 -53q10 -5 39.5 -21.5t42.5 -23.5t41 -18t44.5 -12.5t42 0t44.5 13t41.5 33.5t42.5 54q40 -21 103 -56t103 -55q-81 -154 -175 -228.5t-200 -75t-231 54.5q-17 8 -53 25.5t-57 26.5t-54 20t-57.5 9t-53.5 -9.5 t-56.5 -32t-53.5 -62.5z" />
<glyph unicode="&#xa1;" horiz-adv-x="622" d="M-115 -465l244 1040h354l-190 -1040h-408zM152 782q0 94 73.5 158t171.5 64q73 0 119.5 -43t46.5 -111q0 -95 -73.5 -158t-170.5 -63q-75 0 -121 41t-46 112z" />
<glyph unicode="&#xa2;" d="M74 391q0 84 19.5 161t54.5 138.5t82.5 114.5t104 90t119 66t127 41t129 16t124.5 -10l86 151h143l-109 -192q96 -52 145.5 -145.5t37.5 -223.5h-326q-6 38 -25 64l-215 -388q58 -2 111.5 30.5t87.5 96.5h330q-39 -117 -116.5 -207t-172 -140t-198 -69t-201.5 -3 l-84 -148h-152l105 189q-95 44 -151 140t-56 228zM428 449q0 -59 29 -115l209 377q-92 -5 -165 -75.5t-73 -186.5z" />
<glyph unicode="&#xa3;" horiz-adv-x="1384" d="M-25 -2l7 31q111 82 168 173t83 201q22 109 25 244h-156l41 187h131q21 124 73.5 226.5t126 173.5t165.5 120t191 71.5t204 22.5q97 0 200 -22.5t175 -63.5l-170 -281q-45 27 -117 40.5t-135 13.5q-296 -10 -352 -301h418l-41 -187h-394q-12 -157 -53 -237 q-47 -88 -84 -127q54 29 119 29.5t138.5 -13.5t103.5 -14q58 -2 90.5 34.5t42.5 135.5h291q-4 -101 -29 -184t-73 -148.5t-127.5 -102t-184.5 -36.5q-41 0 -120.5 14t-145 26t-137.5 8t-115 -34h-359z" />
<glyph unicode="&#xa4;" horiz-adv-x="1196" d="M82 418l151 125q-6 23 -6 80q0 118 84 245l-96 121l229 187l103 -132q80 25 153 25q94 0 156 -33l154 127l147 -188l-151 -125q4 -46 4 -82q0 -122 -82 -244l96 -121l-229 -186l-101 133q-83 -26 -153 -26q-93 0 -158 32l-154 -127zM477 664q0 -56 31 -87.5t80 -31.5 q67 0 121.5 50t54.5 134q0 57 -32 88t-79 31q-67 0 -121.5 -50t-54.5 -134z" />
<glyph unicode="&#xa5;" horiz-adv-x="1345" d="M145 242l37 174h262l23 108h-262l37 172h196l-205 684l13 54h399l96 -476h13l299 476h399l-12 -54l-498 -684h199l-37 -172h-262l-23 -108h262l-37 -174h-262l-51 -242h-375l52 242h-263z" />
<glyph unicode="&#xa6;" horiz-adv-x="604" d="M8 -51l146 684h315l-145 -684h-316zM186 784l144 676h315l-143 -676h-316z" />
<glyph unicode="&#xa7;" horiz-adv-x="1325" d="M-4 94h340q-11 -61 45.5 -93t148.5 -32q57 0 109.5 15t89.5 46t37 72q0 34 -18 56.5t-60.5 33.5t-64.5 14t-76 6q-3 1 -5.5 1h-4.5q-69 3 -130.5 14.5t-118 35t-97 56.5t-65 82t-24.5 109q0 181 197 307q-88 69 -88 197q0 88 34.5 162.5t94 127.5t139.5 90.5t170.5 55.5 t186.5 18q103 0 192 -25.5t154 -73.5t92.5 -125t5.5 -173h-336q11 58 -35 88.5t-125 30.5q-38 0 -71.5 -5t-68 -18t-55 -40t-20.5 -66q0 -45 48.5 -66.5t142.5 -27.5q88 -8 150 -18t128 -32t106.5 -53.5t66.5 -83.5t26 -121q0 -100 -45 -176t-129 -141q67 -64 67 -186 q0 -89 -38.5 -165.5t-103 -130.5t-149 -92t-177 -56.5t-187.5 -18.5q-113 0 -208 25t-164 73.5t-98.5 126.5t-8.5 176zM446 586q0 -107 205 -125q76 -3 146 -15q48 27 76 65t28 79q0 111 -258 125q-56 3 -90 10q-107 -61 -107 -139z" />
<glyph unicode="&#xa8;" horiz-adv-x="1183" d="M385 1255q0 89 70.5 148t165.5 59q70 0 114.5 -40t44.5 -105q0 -90 -70 -147.5t-165 -57.5q-70 0 -115 39t-45 104zM942 1253q0 90 70 149.5t166 59.5q70 0 113.5 -39t43.5 -104q0 -90 -69 -148.5t-164 -58.5q-73 0 -116.5 38t-43.5 103z" />
<glyph unicode="&#xa9;" horiz-adv-x="1619" d="M106 565q0 136 36.5 257.5t100.5 214t149.5 167t183.5 122t202 72.5t207 25q118 0 221.5 -36.5t184 -105t127.5 -178.5t47 -247q0 -163 -52.5 -305t-140.5 -242t-202 -172t-238.5 -106.5t-249.5 -34.5q-116 0 -219 36.5t-183 106t-127 179.5t-47 247zM362 604 q0 -184 105.5 -286.5t261.5 -102.5q82 0 164 24.5t157.5 75t133.5 121t92.5 169.5t34.5 212q0 185 -106.5 288t-264.5 103q-81 0 -162.5 -24.5t-156 -75.5t-132.5 -121t-92.5 -169.5t-34.5 -213.5zM510 639q0 94 36.5 173t95.5 128.5t129.5 76.5t141.5 27q115 0 187 -70 t61 -198h-198q-4 34 -27 54t-55 20q-61 0 -106.5 -47t-45.5 -127q0 -52 25 -80.5t65 -28.5q34 0 66 21t51 61h201q-42 -128 -147.5 -200t-221.5 -72q-109 0 -183.5 69.5t-74.5 192.5z" />
<glyph unicode="&#xaa;" horiz-adv-x="1024" d="M123 373l47 217h694l-47 -217h-694zM180 905q0 92 53 161t131.5 101.5t167.5 32.5q90 0 152 -41l2 12q5 33 -19.5 56t-55 31t-60.5 8q-122 0 -201 -37l6 164q129 55 279 55q75 0 135.5 -15t107 -46.5t65.5 -88t3 -133.5l-47 -225q-12 -38 -5.5 -60t46.5 -22l-29 -137 q-32 -7 -63.5 -11.5t-70.5 -4.5t-66 9t-43 32.5t-9 60.5v12q-35 -57 -105 -83.5t-146 -26.5q-105 0 -166.5 46.5t-61.5 149.5zM446 954q-3 -28 11.5 -41.5t46.5 -13.5q45 0 89.5 23.5t51.5 64.5l2 14q-40 34 -106 31q-41 -4 -67 -27t-28 -51z" />
<glyph unicode="&#xab;" horiz-adv-x="1085" d="M113 709l434 520l137 -78l-287 -442l101 -437l-172 -79zM526 709l435 520l137 -78l-287 -442l100 -437l-172 -79z" />
<glyph unicode="&#xac;" horiz-adv-x="1187" d="M100 532l64 299h934l-127 -593h-279l64 294h-656z" />
<glyph unicode="&#xad;" horiz-adv-x="972" d="M102 532l64 299h739l-63 -299h-740z" />
<glyph unicode="&#xae;" horiz-adv-x="1636" d="M106 563q0 164 52.5 306.5t141 244t203.5 174.5t240.5 108.5t251.5 35.5q119 0 223.5 -36.5t186.5 -106t130 -181t48 -250.5q0 -165 -53.5 -309t-142.5 -245t-204.5 -173.5t-241.5 -107.5t-251 -35q-94 0 -180 22.5t-160 70t-128 114.5t-85 161.5t-31 206.5zM365 604 q0 -186 107.5 -290.5t264.5 -104.5q82 0 164.5 25t159 76t135.5 122t94 171.5t35 215.5q0 186 -108.5 290.5t-266.5 104.5q-81 0 -163.5 -25t-158.5 -76t-134.5 -122t-93.5 -171.5t-35 -215.5zM522 391l140 662h305q99 0 155 -48t56 -139q0 -75 -40.5 -142t-115.5 -95 l82 -201l-6 -37h-207l-70 207h-53l-43 -207h-203zM803 760h82q37 0 61.5 21t24.5 48q0 21 -16 35.5t-46 14.5h-82z" />
<glyph unicode="&#xaf;" horiz-adv-x="1021" d="M416 1155l59 277h680l-59 -277h-680z" />
<glyph unicode="&#xb0;" horiz-adv-x="925" d="M176 1036q0 100 41.5 182.5t109.5 134.5t150.5 80.5t167.5 28.5q134 0 226 -77t92 -214q0 -81 -28 -151.5t-75 -120t-108 -85t-127 -52.5t-133 -17q-134 0 -225 77t-91 214zM434 1075q0 -51 30.5 -77.5t76.5 -26.5q61 0 109 43.5t48 118.5q0 52 -27.5 79t-72.5 27 q-62 0 -113 -44t-51 -120z" />
<glyph unicode="&#xb1;" horiz-adv-x="1081" d="M12 4l64 299h805l-64 -299h-805zM147 604l62 285h258l53 252h277l-54 -252h263l-62 -285h-262l-41 -194h-276l41 194h-259z" />
<glyph unicode="&#xb2;" horiz-adv-x="851" d="M113 614l12 58l426 450q46 48 62 91t0 67.5t-58 24.5q-30 0 -54 -21.5t-30 -56.5h-217q24 141 125 223t244 82q111 0 173 -48t70 -119.5t-24 -154.5t-97 -153l-204 -211h252l-50 -232h-630z" />
<glyph unicode="&#xb3;" horiz-adv-x="819" d="M139 899h232q-7 -35 13 -55.5t62 -20.5q46 0 77.5 36.5t31.5 82.5q0 24 -8 39.5t-18.5 23t-31.5 11t-36.5 3t-44.5 -1.5t-45 -1l8 31l174 270h-287l43 201h602l-8 -37l-217 -297q129 -45 129 -199q0 -71 -30 -140t-82 -124t-130.5 -89t-169.5 -34q-142 0 -217.5 82 t-46.5 219z" />
<glyph unicode="&#xb4;" horiz-adv-x="620" d="M283 1077l6 33l248 371l297 -115l-7 -31l-262 -258h-282z" />
<glyph unicode="&#xb5;" horiz-adv-x="1208" d="M-100 -512q40 192 150 704t169 797h334l-125 -581q-13 -75 18.5 -114.5t90.5 -39.5q66 0 125.5 46.5t78.5 127.5l119 561h334l-211 -989h-334l29 129q-27 -61 -76 -98t-108 -37q-56 0 -86 21t-48 69l-127 -596h-333z" />
<glyph unicode="&#xb6;" horiz-adv-x="1679" d="M127 853q25 196 152 351q152 184 383 220q51 8 104 8h915l-401 -1893h-348l334 1575h-252l-334 -1575h-348l174 826q-214 5 -316 160q-88 135 -63 328z" />
<glyph unicode="&#xb7;" horiz-adv-x="595" d="M119 702q0 95 74.5 158.5t173.5 63.5q74 0 119.5 -41.5t45.5 -112.5q0 -96 -72.5 -158.5t-172.5 -62.5q-73 0 -120.5 42.5t-47.5 110.5z" />
<glyph unicode="&#xb8;" horiz-adv-x="802" d="M55 -438l62 188q22 -17 64.5 -26.5t84.5 -3t56 33.5q14 26 -4 46t-47.5 28t-57.5 8l96 197h258l-65 -139q66 -11 95.5 -49.5t24.5 -87.5t-34 -105q-36 -68 -106.5 -107t-147.5 -45t-152 10t-127 52z" />
<glyph unicode="&#xb9;" horiz-adv-x="739" d="M115 614l45 209h141l102 486h-122l45 209h383l-148 -695h144l-46 -209h-544z" />
<glyph unicode="&#xba;" horiz-adv-x="1112" d="M51 289l62 293h882l-61 -293h-883zM203 1016q0 113 47.5 206.5t125.5 151.5t172 89.5t191 31.5q153 0 259 -87t106 -241q0 -113 -48 -206.5t-126 -151.5t-172 -89.5t-191 -31.5q-153 0 -258.5 87t-105.5 241zM502 1061q0 -59 34.5 -92t84.5 -35q75 0 133.5 51t58.5 141 q0 60 -36 92.5t-89 32.5q-73 0 -129.5 -51.5t-56.5 -138.5z" />
<glyph unicode="&#xbb;" horiz-adv-x="1085" d="M41 272l285 437l-99 442l170 78l213 -520l-432 -516zM455 272l284 437l-98 442l170 78l213 -520l-432 -516z" />
<glyph unicode="&#xbc;" horiz-adv-x="2050" d="M82 545l45 209h141l103 485h-123l45 209h383l-148 -694h144l-45 -209h-545zM403 2l996 1432h307l-995 -1432h-308zM1153 158l25 116l495 627h287l-113 -526h80l-45 -217h-80l-35 -160h-245l34 160h-403zM1491 365h127l27 120l41 125h-3z" />
<glyph unicode="&#xbd;" horiz-adv-x="2054" d="M78 545l45 209h141l103 485h-123l45 209h383l-148 -694h144l-45 -209h-545zM399 2l996 1432h307l-995 -1432h-308zM1221 -2l12 57l426 451q46 48 62 90.5t0 67t-58 24.5q-30 0 -54 -21.5t-30 -56.5h-217q26 141 126.5 223t242.5 82q111 0 173.5 -48t70 -119.5 t-24.5 -154.5t-97 -153l-204 -211h252l-50 -231h-630z" />
<glyph unicode="&#xbe;" horiz-adv-x="2101" d="M123 825h231q-10 -34 12 -54.5t64 -20.5q46 0 76.5 36t30.5 82q0 24 -8 39.5t-18.5 23t-32 11t-36.5 3t-44 -1.5t-44 -1l6 31l175 270h-287l43 201h602l-8 -37l-217 -297q131 -44 131 -199q0 -71 -30 -140t-82.5 -124t-131.5 -89t-170 -34q-142 0 -216.5 82t-45.5 219z M453 2l997 1432h307l-997 -1432h-307zM1202 158l25 116l497 627h287l-113 -526h80l-47 -217h-80l-32 -160h-246l33 160h-404zM1542 365h127l25 120l41 125h-2z" />
<glyph unicode="&#xbf;" horiz-adv-x="1085" d="M-57 -115q0 76 21.5 140.5t56 111t77 87t86.5 78t82 75t66.5 86.5t36.5 104h362q-7 -66 -30.5 -122t-56.5 -97t-72.5 -77t-80.5 -69.5t-77 -67t-65 -76.5t-42 -91q-16 -53 21.5 -82.5t93.5 -29.5q59 2 105.5 36.5t62.5 102.5h307q-22 -111 -75 -200t-128 -145.5t-164 -87 t-186 -32.5q-189 -4 -295 96.5t-106 259.5zM399 784q0 95 71.5 158.5t170.5 63.5q75 0 122.5 -42.5t47.5 -111.5q0 -96 -74.5 -158.5t-175.5 -62.5q-73 0 -117.5 41t-44.5 112z" />
<glyph unicode="&#xc0;" horiz-adv-x="1431" d="M-143 0l10 51l938 1397h188l355 -1397l-11 -51h-387l-51 197l-528 -2l-123 -195h-391zM555 500h297l-76 338zM657 1817l7 30l346 115l90 -371l-8 -32h-283z" />
<glyph unicode="&#xc1;" horiz-adv-x="1431" d="M-143 0l10 51l938 1397h188l355 -1397l-11 -51h-387l-51 197l-528 -2l-123 -195h-391zM555 500h297l-76 338zM786 1554l7 33l247 371l297 -115l-6 -31l-262 -258h-283z" />
<glyph unicode="&#xc2;" horiz-adv-x="1431" d="M-143 0l10 51l938 1397h188l355 -1397l-11 -51h-387l-51 197l-528 -2l-123 -195h-391zM457 1554l6 33l366 320h351l225 -320l-6 -33h-336l-105 146l-161 -146h-340zM555 500h297l-76 338z" />
<glyph unicode="&#xc3;" horiz-adv-x="1431" d="M-143 0l10 51l938 1397h188l355 -1397l-11 -51h-387l-51 197l-528 -2l-123 -195h-391zM535 1653q99 171 218.5 228t262.5 -11q2 -1 17.5 -9t20 -10t19.5 -9t21.5 -8t21 -4t22 -0.5t20 5.5t21 10t18 18.5t17.5 26.5l166 -88q-70 -157 -200.5 -225t-247.5 -4q-4 2 -25.5 13 t-29.5 15t-29 12t-32 8.5t-29.5 0.5t-31 -6.5t-27 -19.5t-26.5 -33q-27 13 -83 45t-84 45zM555 500h297l-76 338z" />
<glyph unicode="&#xc4;" horiz-adv-x="1431" d="M-143 0l10 51l938 1397h188l355 -1397l-11 -51h-387l-51 197l-528 -2l-123 -195h-391zM477 1659q0 89 70.5 148t165.5 59q70 0 114.5 -40.5t44.5 -105.5q0 -90 -69.5 -147t-165.5 -57q-70 0 -115 39t-45 104zM555 500h297l-76 338zM1034 1657q0 90 70 149.5t166 59.5 q70 0 113.5 -39.5t43.5 -104.5q0 -90 -69 -148t-164 -58q-73 0 -116.5 38t-43.5 103z" />
<glyph unicode="&#xc5;" horiz-adv-x="1429" d="M-143 0l10 51l926 1354q-66 21 -106 74.5t-40 130.5q0 75 31.5 136.5t83 100t113.5 59.5t126 21q101 0 170.5 -56.5t69.5 -158.5q0 -111 -69 -191.5t-171 -109.5l347 -1360l-11 -51h-387l-47 178h-536l-119 -178h-391zM555 492h297l-76 346zM850 1647q0 -31 23 -49.5 t55 -18.5q45 0 77.5 25t32.5 73q0 31 -21.5 48.5t-53.5 17.5q-43 0 -78 -26t-35 -70z" />
<glyph unicode="&#xc6;" horiz-adv-x="1695" d="M-141 0l12 55l928 1375h956l-67 -326h-467l-45 -205h423l-65 -309h-424l-55 -266h485l-70 -324h-802l67 313h-321l-197 -313h-358zM592 618h207l121 496h-5z" />
<glyph unicode="&#xc7;" horiz-adv-x="1548" d="M92.5 424.5q-22.5 126.5 9.5 290.5q30 143 97.5 264.5t156 206.5t196 145t219 88.5t222.5 28.5q91 0 174.5 -19.5t158 -62t127 -104.5t80 -154t19.5 -203h-360q-17 108 -84 156.5t-186 48.5q-192 0 -322.5 -136.5t-130.5 -336.5q0 -133 76.5 -222t210.5 -89 q121 0 216.5 56.5t147.5 170.5h361q-42 -123 -112 -222.5t-156 -165.5t-180 -107t-195 -58l-50 -106q66 -11 95.5 -49.5t24.5 -87.5t-34 -105q-36 -68 -106.5 -107t-147 -45t-151.5 10t-127 52l59 188q37 -28 109 -31.5t98 35.5q14 26 -4 46t-47 28t-57 8l73 158 q-120 17 -218.5 69.5t-169 143.5t-93 217.5z" />
<glyph unicode="&#xc8;" horiz-adv-x="1169" d="M29 0l305 1434h897l-66 -308h-520l-47 -223h479l-69 -328h-480l-55 -251h539l-68 -324h-915zM565 1794l6 31l347 114l90 -370l-9 -33h-282z" />
<glyph unicode="&#xc9;" horiz-adv-x="1169" d="M29 0l305 1434h897l-66 -308h-520l-47 -223h479l-69 -328h-480l-55 -251h539l-68 -324h-915zM653 1540l6 33l248 371l297 -115l-6 -31l-262 -258h-283z" />
<glyph unicode="&#xca;" horiz-adv-x="1169" d="M29 0l305 1434h897l-66 -308h-520l-47 -223h479l-69 -328h-480l-55 -251h539l-68 -324h-915zM356 1536l6 31l351 315h334l215 -315l-7 -31h-319l-100 143l-154 -143h-326z" />
<glyph unicode="&#xcb;" horiz-adv-x="1169" d="M29 0l305 1434h897l-66 -308h-520l-47 -223h479l-69 -328h-480l-55 -251h539l-68 -324h-915zM367 1686q0 89 70 147.5t165 58.5q70 0 115 -40t45 -105q0 -90 -70 -147.5t-166 -57.5q-70 0 -114.5 39.5t-44.5 104.5zM924 1683q0 90 69.5 149.5t165.5 59.5q70 0 114 -39 t44 -104q0 -90 -69.5 -148.5t-164.5 -58.5q-73 0 -116 38t-43 103z" />
<glyph unicode="&#xcc;" horiz-adv-x="929" d="M-29 0q13 59 31.5 151t32.5 152h182l176 827h-166l66 304h704l-65 -304h-166l-176 -827h182q-14 -60 -32 -152t-31 -151h-738zM403 1796l7 31l346 115l90 -371l-8 -33h-283z" />
<glyph unicode="&#xcd;" horiz-adv-x="929" d="M-29 0q13 59 31.5 151t32.5 152h182l176 827h-166l66 304h704l-65 -304h-166l-176 -827h182q-14 -60 -32 -152t-31 -151h-738zM494 1542l6 33l248 371l296 -115l-6 -31l-262 -258h-282z" />
<glyph unicode="&#xce;" horiz-adv-x="929" d="M-29 0q13 59 31.5 151t32.5 152h182l176 827h-166l66 304h704l-65 -304h-166l-176 -827h182q-14 -60 -32 -152t-31 -151h-738zM217 1552l6 31l350 311h334l217 -311l-6 -31h-321l-101 142l-155 -142h-324z" />
<glyph unicode="&#xcf;" horiz-adv-x="929" d="M-29 0q13 59 31.5 151t32.5 152h182l176 827h-166l66 304h704l-65 -304h-166l-176 -827h182q-14 -60 -32 -152t-31 -151h-738zM236 1686q0 89 70 147.5t165 58.5q70 0 115 -40t45 -105q0 -90 -70 -147.5t-166 -57.5q-70 0 -114.5 39.5t-44.5 104.5zM793 1683 q0 90 69.5 149.5t165.5 59.5q70 0 114 -39t44 -104q0 -90 -69.5 -148.5t-164.5 -58.5q-73 0 -116 38t-43 103z" />
<glyph unicode="&#xd0;" horiz-adv-x="1509" d="M18 559l62 293h151l125 580h547q142 0 254 -48.5t179.5 -130.5t102 -183t34.5 -214q0 -123 -38 -245.5t-114 -232t-179.5 -194.5t-244.5 -134.5t-299 -49.5h-547l119 559h-152zM496 338h168q78 0 147.5 27t120 72.5t88 104.5t56 125t18.5 132q0 81 -27 146t-89.5 108 t-152.5 43h-168l-53 -244h215l-61 -293h-215z" />
<glyph unicode="&#xd1;" horiz-adv-x="1550" d="M31 0l305 1440h117l594 -721l153 715h375l-305 -1438h-96l-609 766l-159 -762h-375zM516 1638q99 171 218.5 228t262.5 -11q66 -34 93 -38q68 -10 106 59l166 -88q-70 -157 -201 -225t-248 -4q-3 2 -25 13t-29.5 14.5t-28.5 11.5t-32 9t-29.5 1t-31 -7t-27 -20t-26.5 -33 q-27 14 -83.5 45.5t-84.5 44.5z" />
<glyph unicode="&#xd2;" horiz-adv-x="1636" d="M90 561q0 171 54.5 319.5t146 253.5t210.5 180t248 111.5t259 36.5q120 0 226 -38.5t188 -111t129.5 -187.5t47.5 -257q0 -190 -65 -354t-181.5 -284t-289.5 -188.5t-379 -68.5q-123 0 -230 38.5t-188.5 110.5t-128.5 185.5t-47 253.5zM477 633q-11 -148 74.5 -226.5 t212.5 -78.5q63 0 127 19.5t123 59t104.5 95t73 133t27.5 166.5q0 143 -81.5 224t-203.5 81q-81 0 -158 -31t-141.5 -88.5t-107 -149t-50.5 -204.5zM752 1821l6 30l346 115l90 -371l-8 -32h-283z" />
<glyph unicode="&#xd3;" horiz-adv-x="1636" d="M90 561q0 171 54.5 319.5t146 253.5t210.5 180t248 111.5t259 36.5q120 0 226 -38.5t188 -111t129.5 -187.5t47.5 -257q0 -190 -65 -354t-181.5 -284t-289.5 -188.5t-379 -68.5q-123 0 -230 38.5t-188.5 110.5t-128.5 185.5t-47 253.5zM477 633q-11 -148 74.5 -226.5 t212.5 -78.5q63 0 127 19.5t123 59t104.5 95t73 133t27.5 166.5q0 143 -81.5 224t-203.5 81q-81 0 -158 -31t-141.5 -88.5t-107 -149t-50.5 -204.5zM854 1565l6 32l248 371l297 -115l-6 -30l-262 -258h-283z" />
<glyph unicode="&#xd4;" horiz-adv-x="1636" d="M90 561q0 171 54.5 319.5t146 253.5t210.5 180t248 111.5t259 36.5q120 0 226 -38.5t188 -111t129.5 -187.5t47.5 -257q0 -190 -65 -354t-181.5 -284t-289.5 -188.5t-379 -68.5q-123 0 -230 38.5t-188.5 110.5t-128.5 185.5t-47 253.5zM477 633q-11 -148 74.5 -226.5 t212.5 -78.5q63 0 127 19.5t123 59t104.5 95t73 133t27.5 166.5q0 143 -81.5 224t-203.5 81q-81 0 -158 -31t-141.5 -88.5t-107 -149t-50.5 -204.5zM553 1563l6 32l367 320h350l225 -320l-6 -32h-336l-104 145l-162 -145h-340z" />
<glyph unicode="&#xd5;" horiz-adv-x="1636" d="M90 561q0 171 54.5 319.5t146 253.5t210.5 180t248 111.5t259 36.5q120 0 226 -38.5t188 -111t129.5 -187.5t47.5 -257q0 -190 -65 -354t-181.5 -284t-289.5 -188.5t-379 -68.5q-123 0 -230 38.5t-188.5 110.5t-128.5 185.5t-47 253.5zM477 633q-11 -148 74.5 -226.5 t212.5 -78.5q63 0 127 19.5t123 59t104.5 95t73 133t27.5 166.5q0 143 -81.5 224t-203.5 81q-81 0 -158 -31t-141.5 -88.5t-107 -149t-50.5 -204.5zM643 1681q99 171 218.5 228t262.5 -11q66 -34 93 -38q68 -10 106 59l166 -88q-70 -157 -201 -225t-248 -4q-3 2 -25 13 t-29.5 14.5t-28.5 11.5t-32 9t-29.5 1t-31 -7t-27 -20t-26.5 -33q-27 14 -83.5 45.5t-84.5 44.5z" />
<glyph unicode="&#xd6;" horiz-adv-x="1636" d="M90 561q0 171 54.5 319.5t146 253.5t210.5 180t248 111.5t259 36.5q120 0 226 -38.5t188 -111t129.5 -187.5t47.5 -257q0 -190 -65 -354t-181.5 -284t-289.5 -188.5t-379 -68.5q-123 0 -230 38.5t-188.5 110.5t-128.5 185.5t-47 253.5zM477 633q-11 -148 74.5 -226.5 t212.5 -78.5q63 0 127 19.5t123 59t104.5 95t73 133t27.5 166.5q0 143 -81.5 224t-203.5 81q-81 0 -158 -31t-141.5 -88.5t-107 -149t-50.5 -204.5zM586 1702q0 89 70 148t165 59q70 0 115 -40.5t45 -105.5q0 -89 -70 -146.5t-166 -57.5q-70 0 -114.5 39t-44.5 104z M1143 1700q0 90 69.5 149.5t165.5 59.5q70 0 114 -39.5t44 -104.5q0 -90 -69 -148t-164 -58q-73 0 -116.5 38t-43.5 103z" />
<glyph unicode="&#xd7;" horiz-adv-x="1079" d="M127 522l229 189l-151 190l254 211l151 -190l230 186l164 -209l-228 -188l150 -191l-256 -209l-148 189l-229 -187z" />
<glyph unicode="&#xd8;" horiz-adv-x="1630" d="M6 -131l8 39l209 256q-62 68 -96.5 173.5t-34.5 229.5q0 169 54.5 315.5t145.5 250.5t209 178.5t246.5 110.5t256.5 36q143 0 239 -39l109 137h350l-6 -34l-217 -265q116 -138 116 -389q0 -142 -38 -268.5t-104 -223t-154 -173.5t-189.5 -126.5t-210 -75.5t-215.5 -26 q-119 0 -217 33l-113 -139q-38 0 -109 -0.5t-129.5 -0.5t-109.5 1zM475 635q0 -89 29 -152l497 615q-37 6 -73 6q-62 0 -125.5 -19.5t-122.5 -59t-104.5 -94t-73 -131.5t-27.5 -165zM711 334q36 -4 55 -4q78 0 156.5 32t144 89.5t106.5 149t41 200.5q0 84 -20 131z" />
<glyph unicode="&#xd9;" horiz-adv-x="1441" d="M108.5 298q-14.5 78 6.5 175l204 961h371l-203 -953q-19 -83 35 -126.5t142 -43.5q87 0 155.5 43t87.5 127l203 953h373l-205 -961q-26 -117 -94 -212t-161.5 -155t-203.5 -92t-225 -32q-91 0 -172 20t-147 60t-109 99t-57.5 137zM645 1794l6 31l346 114l90 -370l-8 -33 h-282z" />
<glyph unicode="&#xda;" horiz-adv-x="1441" d="M108.5 298q-14.5 78 6.5 175l204 961h371l-203 -953q-19 -83 35 -126.5t142 -43.5q87 0 155.5 43t87.5 127l203 953h373l-205 -961q-26 -117 -94 -212t-161.5 -155t-203.5 -92t-225 -32q-91 0 -172 20t-147 60t-109 99t-57.5 137zM766 1530l6 33l248 370l297 -114l-6 -31 l-262 -258h-283z" />
<glyph unicode="&#xdb;" horiz-adv-x="1441" d="M108.5 298q-14.5 78 6.5 175l204 961h371l-203 -953q-19 -83 35 -126.5t142 -43.5q87 0 155.5 43t87.5 127l203 953h373l-205 -961q-26 -117 -94 -212t-161.5 -155t-203.5 -92t-225 -32q-91 0 -172 20t-147 60t-109 99t-57.5 137zM442 1569l7 33l366 319h350l226 -319 l-7 -33h-335l-105 145l-162 -145h-340z" />
<glyph unicode="&#xdc;" horiz-adv-x="1441" d="M108.5 298q-14.5 78 6.5 175l204 961h371l-203 -953q-19 -83 35 -126.5t142 -43.5q87 0 155.5 43t87.5 127l203 953h373l-205 -961q-26 -117 -94 -212t-161.5 -155t-203.5 -92t-225 -32q-91 0 -172 20t-147 60t-109 99t-57.5 137zM506 1712q0 89 70 148t165 59 q70 0 115 -40t45 -105q0 -90 -70 -147.5t-165 -57.5q-70 0 -115 39t-45 104zM1063 1710q0 90 69.5 149.5t165.5 59.5q70 0 114 -39t44 -104q0 -90 -69 -148.5t-164 -58.5q-73 0 -116.5 38t-43.5 103z" />
<glyph unicode="&#xdd;" horiz-adv-x="1304" d="M147 1378l13 56h397l162 -476h14l363 476h397l-12 -56l-660 -833l-112 -545h-373l121 567zM664 1544l6 33l248 371l296 -115l-6 -31l-262 -258h-282z" />
<glyph unicode="&#xde;" horiz-adv-x="1378" d="M29 0l305 1434h375l-37 -172h258q84 0 153 -21t117 -58.5t81 -88.5t48 -111.5t15 -126t-15 -133.5q-23 -101 -75.5 -193t-129.5 -167t-186 -119.5t-233 -44.5h-259l-43 -199h-374zM508 524h264q70 0 126.5 63t74.5 146q16 83 -12 143t-101 60h-264z" />
<glyph unicode="&#xdf;" horiz-adv-x="1280" d="M-4 0l213 1006q22 100 66.5 177t100 125.5t129.5 78.5t144 42.5t155 11.5t151 -9t143.5 -24.5t121.5 -28.5t95 -27l-10 -54l-299 -450q90 -24 138 -106.5t48 -190.5q0 -116 -38 -219.5t-104.5 -176.5t-157 -119.5t-194.5 -48.5t-217 38l58 278q103 -33 171 22t93 144 q5 27 6 49t-1.5 38.5t-11 29t-17 21t-25.5 14.5t-30.5 9t-37.5 4.5t-41.5 2t-46.5 0.5l12 55l258 443q-98 50 -193 9.5t-120 -145.5l-213 -999h-346z" />
<glyph unicode="&#xe0;" d="M29.5 345q1.5 77 17.5 163q40 166 139.5 281.5t238.5 169.5t308 51q219 -3 414 -90l-129 -605q-13 -66 1.5 -95.5t76.5 -29.5l-39 -188q-37 -8 -74 -12.5t-83.5 -6t-83.5 7t-67.5 25.5t-43 51.5t-3.5 82.5q-55 -79 -142.5 -122.5t-178.5 -43.5q-90 2 -158.5 29.5 t-109 75.5t-63 113.5t-21 142.5zM391 500q-24 -100 7 -155t116 -54q75 0 127 58t78 155l53 215q-71 17 -121 14q-93 -5 -160.5 -64.5t-99.5 -168.5zM492 1372l6 29l317 104l82 -340l-8 -30h-258z" />
<glyph unicode="&#xe1;" d="M29.5 345q1.5 77 17.5 163q40 166 139.5 281.5t238.5 169.5t308 51q219 -3 414 -90l-129 -605q-13 -66 1.5 -95.5t76.5 -29.5l-39 -188q-37 -8 -74 -12.5t-83.5 -6t-83.5 7t-67.5 25.5t-43 51.5t-3.5 82.5q-55 -79 -142.5 -122.5t-178.5 -43.5q-90 2 -158.5 29.5 t-109 75.5t-63 113.5t-21 142.5zM391 500q-24 -100 7 -155t116 -54q75 0 127 58t78 155l53 215q-71 17 -121 14q-93 -5 -160.5 -64.5t-99.5 -168.5zM573 1128l7 31l233 348l279 -108l-7 -29l-245 -242h-267z" />
<glyph unicode="&#xe2;" d="M29.5 345q1.5 77 17.5 163q40 166 139.5 281.5t238.5 169.5t308 51q219 -3 414 -90l-129 -605q-13 -66 1.5 -95.5t76.5 -29.5l-39 -188q-37 -8 -74 -12.5t-83.5 -6t-83.5 7t-67.5 25.5t-43 51.5t-3.5 82.5q-55 -79 -142.5 -122.5t-178.5 -43.5q-90 2 -158.5 29.5 t-109 75.5t-63 113.5t-21 142.5zM299 1130l6 33l324 305h307l201 -305l-7 -33h-296l-93 142l-143 -142h-299zM391 500q-24 -100 7 -155t116 -54q75 0 127 58t78 155l53 215q-71 17 -121 14q-93 -5 -160.5 -64.5t-99.5 -168.5z" />
<glyph unicode="&#xe3;" d="M29.5 345q1.5 77 17.5 163q40 166 139.5 281.5t238.5 169.5t308 51q219 -3 414 -90l-129 -605q-13 -66 1.5 -95.5t76.5 -29.5l-39 -188q-37 -8 -74 -12.5t-83.5 -6t-83.5 7t-67.5 25.5t-43 51.5t-3.5 82.5q-55 -79 -142.5 -122.5t-178.5 -43.5q-90 2 -158.5 29.5 t-109 75.5t-63 113.5t-21 142.5zM389 1233q191 333 449 203q22 -12 34.5 -18.5t37 -14t41.5 -5.5t36.5 15.5t34.5 40.5q30 -14 80.5 -42t75.5 -40q-65 -144 -187.5 -208t-230.5 -5q-9 4 -33 15.5t-37.5 17.5t-37 11t-39.5 1.5t-34.5 -17t-33.5 -38.5q-108 60 -156 84z M391 500q-24 -100 7 -155t116 -54q75 0 127 58t78 155l53 215q-71 17 -121 14q-93 -5 -160.5 -64.5t-99.5 -168.5z" />
<glyph unicode="&#xe4;" d="M29.5 345q1.5 77 17.5 163q40 166 139.5 281.5t238.5 169.5t308 51q219 -3 414 -90l-129 -605q-13 -66 1.5 -95.5t76.5 -29.5l-39 -188q-37 -8 -74 -12.5t-83.5 -6t-83.5 7t-67.5 25.5t-43 51.5t-3.5 82.5q-55 -79 -142.5 -122.5t-178.5 -43.5q-90 2 -158.5 29.5 t-109 75.5t-63 113.5t-21 142.5zM338 1264q0 85 67.5 141.5t155.5 56.5q68 0 110 -38t42 -101q0 -85 -66.5 -141t-154.5 -56q-68 0 -111 38t-43 100zM391 500q-24 -100 7 -155t116 -54q75 0 127 58t78 155l53 215q-71 17 -121 14q-93 -5 -160.5 -64.5t-99.5 -168.5z M850 1264q0 86 66 142t159 56q67 0 108.5 -37.5t41.5 -99.5q0 -88 -65.5 -143.5t-155.5 -55.5q-69 0 -111.5 37.5t-42.5 100.5z" />
<glyph unicode="&#xe5;" d="M29.5 345q1.5 77 17.5 163q40 166 139.5 281.5t238.5 169.5t308 51q219 -3 414 -90l-129 -605q-13 -66 1.5 -95.5t76.5 -29.5l-39 -188q-37 -8 -74 -12.5t-83.5 -6t-83.5 7t-67.5 25.5t-43 51.5t-3.5 82.5q-55 -79 -142.5 -122.5t-178.5 -43.5q-90 2 -158.5 29.5 t-109 75.5t-63 113.5t-21 142.5zM391 500q-24 -100 7 -155t116 -54q75 0 127 58t78 155l53 215q-71 17 -121 14q-93 -5 -160.5 -64.5t-99.5 -168.5zM526 1290q0 83 50 146t123 93t153 30q92 0 155.5 -49.5t63.5 -135.5q0 -81 -49 -143.5t-122.5 -92.5t-154.5 -30 q-94 0 -156.5 47t-62.5 135zM709 1321q0 -29 21 -45t52 -16q43 0 77 23.5t34 64.5q0 29 -22.5 44t-55.5 15q-40 0 -73 -23.5t-33 -62.5z" />
<glyph unicode="&#xe6;" horiz-adv-x="1640" d="M29.5 254.5q-11.5 95.5 15.5 232.5q57 257 229.5 392.5t411.5 130.5q156 -3 266 -97q114 92 279 103q65 2 123 -8.5t110 -35t84.5 -65t45 -99.5t-8.5 -138q-35 -144 -145 -222t-248 -86q-141 -10 -240 52q-6 -93 54 -136t161 -38q79 4 166 26t142 51l-41 -251 q-156 -84 -338 -84q-97 0 -164.5 25.5t-108.5 92.5l-35 -100h-184l6 133q-45 -71 -124 -110t-156 -39q-71 0 -132 27.5t-109 87.5t-59.5 155.5zM356 489q-24 -106 7 -162.5t116 -56.5q72 0 122 62t75 164l47 209q-61 28 -119 28q-90 0 -155 -60t-93 -184zM1010 610 q31 -18 77.5 -28.5t88.5 -6.5q39 2 73.5 31.5t34.5 73.5q0 39 -32 56.5t-74 15.5q-115 -12 -168 -142z" />
<glyph unicode="&#xe7;" horiz-adv-x="1155" d="M37 393q0 119 39 222t104 176t149.5 125.5t176.5 78t184 25.5q189 0 309.5 -109t104.5 -309h-330q-7 54 -45.5 83.5t-91.5 29.5q-91 0 -167.5 -73t-76.5 -193q0 -82 44 -126t108 -44q54 0 104.5 32t81.5 92h332q-55 -163 -178.5 -268t-276.5 -139l-41 -88q47 -6 75 -28 t34.5 -54t0 -68t-25.5 -73q-39 -74 -111.5 -109t-160.5 -35q-134 0 -219 60l55 174q32 -27 98.5 -28.5t89.5 32.5q18 37 -14 56.5t-74 19.5l64 131q-151 26 -246.5 131t-95.5 276z" />
<glyph unicode="&#xe8;" horiz-adv-x="1114" d="M33 375q0 121 37.5 225.5t99.5 178t143.5 127t169.5 80.5t176 30q72 2 136.5 -8.5t123 -35t95.5 -65t52.5 -99.5t-5.5 -138q-23 -98 -92 -168t-154 -102.5t-182 -37.5q-151 -9 -264 52q-4 -50 13 -84t52 -51.5t78 -24t98 -4.5q88 5 183 26t155 50l-41 -260 q-84 -45 -173 -63t-204 -23q-231 -12 -364 88.5t-133 306.5zM424 606q34 -18 85.5 -28.5t98.5 -6.5q45 2 82 31t37 74q0 39 -36.5 56.5t-82.5 15.5q-122 -11 -184 -142zM438 1362l6 29l324 108l84 -348l-6 -31h-266z" />
<glyph unicode="&#xe9;" horiz-adv-x="1114" d="M33 375q0 121 37.5 225.5t99.5 178t143.5 127t169.5 80.5t176 30q72 2 136.5 -8.5t123 -35t95.5 -65t52.5 -99.5t-5.5 -138q-23 -98 -92 -168t-154 -102.5t-182 -37.5q-151 -9 -264 52q-4 -50 13 -84t52 -51.5t78 -24t98 -4.5q88 5 183 26t155 50l-41 -260 q-84 -45 -173 -63t-204 -23q-231 -12 -364 88.5t-133 306.5zM424 606q34 -18 85.5 -28.5t98.5 -6.5q45 2 82 31t37 74q0 39 -36.5 56.5t-82.5 15.5q-122 -11 -184 -142zM535 1124l6 31l229 344l277 -106l-7 -29l-243 -240h-262z" />
<glyph unicode="&#xea;" horiz-adv-x="1114" d="M33 375q0 121 37.5 225.5t99.5 178t143.5 127t169.5 80.5t176 30q72 2 136.5 -8.5t123 -35t95.5 -65t52.5 -99.5t-5.5 -138q-23 -98 -92 -168t-154 -102.5t-182 -37.5q-151 -9 -264 52q-4 -50 13 -84t52 -51.5t78 -24t98 -4.5q88 5 183 26t155 50l-41 -260 q-84 -45 -173 -63t-204 -23q-231 -12 -364 88.5t-133 306.5zM260 1126l6 31l340 295h324l209 -295l-6 -31h-312l-96 136l-150 -136h-315zM424 606q34 -18 85.5 -28.5t98.5 -6.5q45 2 82 31t37 74q0 39 -36.5 56.5t-82.5 15.5q-122 -11 -184 -142z" />
<glyph unicode="&#xeb;" horiz-adv-x="1114" d="M33 375q0 121 37.5 225.5t99.5 178t143.5 127t169.5 80.5t176 30q72 2 136.5 -8.5t123 -35t95.5 -65t52.5 -99.5t-5.5 -138q-23 -98 -92 -168t-154 -102.5t-182 -37.5q-151 -9 -264 52q-4 -50 13 -84t52 -51.5t78 -24t98 -4.5q88 5 183 26t155 50l-41 -260 q-84 -45 -173 -63t-204 -23q-231 -12 -364 88.5t-133 306.5zM276 1249q0 83 65.5 138t154.5 55q64 0 105.5 -37t41.5 -98q0 -82 -65 -135.5t-154 -53.5q-64 0 -106 36t-42 95zM424 606q34 -18 85.5 -28.5t98.5 -6.5q45 2 82 31t37 74q0 39 -36.5 56.5t-82.5 15.5 q-122 -11 -184 -142zM793 1247q0 84 64 139.5t153 55.5q66 0 106.5 -36t40.5 -97q0 -82 -65 -136.5t-152 -54.5q-67 0 -107 34.5t-40 94.5z" />
<glyph unicode="&#xec;" horiz-adv-x="589" d="M-4 0l209 987h348l-209 -987h-348zM150 1341l6 29l333 111l86 -357l-6 -32h-274z" />
<glyph unicode="&#xed;" horiz-adv-x="589" d="M-4 0l209 987h348l-209 -987h-348zM229 1098l7 30l237 357l285 -111l-6 -28l-252 -248h-271z" />
<glyph unicode="&#xee;" horiz-adv-x="589" d="M-4 0l209 987h348l-209 -987h-348zM23 1083l6 35l309 330h295l190 -330l-6 -35h-282l-89 152l-137 -152h-286z" />
<glyph unicode="&#xef;" horiz-adv-x="589" d="M-4 0l209 987h348l-209 -987h-348zM33 1255q0 86 66 142.5t157 56.5q68 0 110 -38t42 -101q0 -84 -66.5 -139.5t-159.5 -55.5q-67 0 -108 36.5t-41 98.5zM483 1255q0 86 66.5 142.5t159.5 56.5q67 0 108 -37.5t41 -99.5q0 -87 -65.5 -142t-157.5 -55q-67 0 -109.5 36.5 t-42.5 98.5z" />
<glyph unicode="&#xf0;" horiz-adv-x="1196" d="M35 389q0 112 37.5 208.5t100 164t144 116t170.5 72t179 23.5q54 0 71 -12q-8 22 -36 67.5t-35 63.5l-113 -68l-61 125l110 65q-57 105 -133 201l4 17h277q41 -37 75 -80l123 69l60 -123l-95 -59q93 -135 150 -297.5t57 -320.5q0 -126 -39.5 -233.5t-104.5 -182.5 t-150.5 -128.5t-177.5 -78.5t-185 -25q-116 0 -211.5 46t-156 142.5t-60.5 227.5zM389 442q0 -77 38.5 -120.5t96.5 -45.5q90 0 163 71.5t73 189.5q0 75 -42.5 116t-105.5 39q-85 0 -154 -68t-69 -182z" />
<glyph unicode="&#xf1;" horiz-adv-x="1298" d="M31 0l145 686q8 43 9.5 69.5t-17.5 37.5t-68 8l41 190q26 6 53.5 11t62 9t65.5 4.5t64.5 -1.5t59.5 -9.5t50 -20t36 -32.5t18.5 -47.5t-3.5 -64.5q62 80 146 125t175 45q105 0 175 -34t99.5 -93t35 -140t-18.5 -176l-57 -266q-16 -57 -2.5 -86t71.5 -29l-36 -178 q-47 -12 -91.5 -18.5t-89.5 -7t-82 8t-68.5 26t-48.5 47t-23.5 72t7.5 100.5l72 331q19 80 -15 124t-96 44q-60 5 -122 -44.5t-78 -129.5l-119 -561h-350zM358 1237q93 162 206 215.5t249 -10.5q19 -11 28.5 -16t30.5 -14t35.5 -9t32.5 2.5t32.5 16.5t26.5 38q31 -14 82 -42 t76 -40q-65 -148 -190 -213t-234 -4q-71 39 -102 45q-70 14 -115 -55q-26 13 -79 43t-79 43z" />
<glyph unicode="&#xf2;" horiz-adv-x="1196" d="M39 393q0 150 51.5 271.5t139.5 198.5t202.5 117t243.5 38q88 -2 166 -29.5t140.5 -77.5t99 -130.5t36.5 -180.5q0 -200 -88.5 -345t-234.5 -214t-328 -64q-88 2 -164 29t-135.5 77t-94 130t-34.5 180zM381 457q-4 -78 37.5 -120t107.5 -44q100 -5 169 60t75 184 q4 80 -37.5 121.5t-107.5 43.5q-92 5 -166 -63t-78 -182zM467 1360l4 29l322 106l81 -342l-6 -31h-262z" />
<glyph unicode="&#xf3;" horiz-adv-x="1196" d="M39 393q0 150 51.5 271.5t139.5 198.5t202.5 117t243.5 38q88 -2 166 -29.5t140.5 -77.5t99 -130.5t36.5 -180.5q0 -200 -88.5 -345t-234.5 -214t-328 -64q-88 2 -164 29t-135.5 77t-94 130t-34.5 180zM381 457q-4 -78 37.5 -120t107.5 -44q100 -5 169 60t75 184 q4 80 -37.5 121.5t-107.5 43.5q-92 5 -166 -63t-78 -182zM551 1120l6 31l229 344l277 -106l-6 -29l-244 -240h-262z" />
<glyph unicode="&#xf4;" horiz-adv-x="1196" d="M39 393q0 150 51.5 271.5t139.5 198.5t202.5 117t243.5 38q88 -2 166 -29.5t140.5 -77.5t99 -130.5t36.5 -180.5q0 -200 -88.5 -345t-234.5 -214t-328 -64q-88 2 -164 29t-135.5 77t-94 130t-34.5 180zM264 1133l4 32l336 305h322l204 -305l-4 -32h-307l-96 141 l-148 -141h-311zM381 457q-4 -78 37.5 -120t107.5 -44q100 -5 169 60t75 184q4 80 -37.5 121.5t-107.5 43.5q-92 5 -166 -63t-78 -182z" />
<glyph unicode="&#xf5;" horiz-adv-x="1196" d="M39 393q0 150 51.5 271.5t139.5 198.5t202.5 117t243.5 38q88 -2 166 -29.5t140.5 -77.5t99 -130.5t36.5 -180.5q0 -200 -88.5 -345t-234.5 -214t-328 -64q-88 2 -164 29t-135.5 77t-94 130t-34.5 180zM352 1241q93 162 206 215.5t249 -10.5q19 -11 28.5 -16t30.5 -14 t35.5 -9t32.5 2.5t32.5 16.5t26.5 38q31 -14 82 -42t76 -40q-65 -148 -190 -213t-234 -4q-71 39 -102 45q-70 14 -115 -55q-25 13 -78.5 42.5t-79.5 43.5zM381 457q-4 -78 37.5 -120t107.5 -44q100 -5 169 60t75 184q4 80 -37.5 121.5t-107.5 43.5q-92 5 -166 -63t-78 -182z " />
<glyph unicode="&#xf6;" horiz-adv-x="1196" d="M39 393q0 150 51.5 271.5t139.5 198.5t202.5 117t243.5 38q88 -2 166 -29.5t140.5 -77.5t99 -130.5t36.5 -180.5q0 -200 -88.5 -345t-234.5 -214t-328 -64q-88 2 -164 29t-135.5 77t-94 130t-34.5 180zM307 1253q0 83 65 138t154 55q64 0 106 -37t42 -98 q0 -82 -65 -135.5t-154 -53.5q-64 0 -106 36t-42 95zM381 457q-4 -78 37.5 -120t107.5 -44q100 -5 169 60t75 184q4 80 -37.5 121.5t-107.5 43.5q-92 5 -166 -63t-78 -182zM823 1251q0 84 64 139.5t153 55.5q67 0 107.5 -36t40.5 -97q0 -82 -65 -136.5t-152 -54.5 q-67 0 -107.5 35t-40.5 94z" />
<glyph unicode="&#xf7;" horiz-adv-x="1112" d="M84 584l63 299h943l-64 -299h-942zM293 281q0 95 74.5 158t171.5 63q75 0 121.5 -41.5t46.5 -112.5q0 -96 -73 -158.5t-173 -62.5q-73 0 -120.5 43t-47.5 111zM473 1128q0 95 74.5 158.5t171.5 63.5q75 0 121.5 -41.5t46.5 -112.5q0 -95 -73.5 -158t-172.5 -63 q-74 0 -121 42t-47 111z" />
<glyph unicode="&#xf8;" horiz-adv-x="1191" d="M8 -115l146 201q-55 50 -85 129t-30 176q0 87 20 166t56 141t85 115t106.5 90t121.5 63.5t129.5 38.5t130.5 12t125 -13l80 110h268l-153 -213q108 -105 108 -301q0 -85 -20 -162.5t-55 -139t-83.5 -114.5t-105 -89.5t-120 -65t-128.5 -39.5t-129.5 -13t-124.5 13 l-74 -105h-268zM379 440q0 -46 4 -55l248 344q-96 0 -174 -78.5t-78 -210.5zM532 266q94 0 170 79t76 206q0 8 -1 27t-1 26z" />
<glyph unicode="&#xf9;" horiz-adv-x="1241" d="M54.5 286q4.5 63 21.5 142l119 559h352l-119 -559q-22 -86 5.5 -128t86.5 -42q64 0 121 48.5t74 127.5l116 553h349l-148 -696q-15 -49 -4.5 -72.5t66.5 -23.5l-39 -191q-26 -6 -52 -11t-59 -9.5t-63 -5.5t-62.5 0t-57.5 8t-48.5 19t-35 32t-17.5 46.5t4 63.5 q-54 -75 -142 -118t-176 -43q-86 0 -146 22.5t-92.5 61t-45 96t-8 120.5zM449 1356l6 28l329 109l86 -352l-8 -31h-268z" />
<glyph unicode="&#xfa;" horiz-adv-x="1241" d="M54.5 286q4.5 63 21.5 142l119 559h352l-119 -559q-22 -86 5.5 -128t86.5 -42q64 0 121 48.5t74 127.5l116 553h349l-148 -696q-15 -49 -4.5 -72.5t66.5 -23.5l-39 -191q-26 -6 -52 -11t-59 -9.5t-63 -5.5t-62.5 0t-57.5 8t-48.5 19t-35 32t-17.5 46.5t4 63.5 q-54 -75 -142 -118t-176 -43q-86 0 -146 22.5t-92.5 61t-45 96t-8 120.5zM563 1118l6 31l234 348l278 -108l-6 -29l-246 -242h-266z" />
<glyph unicode="&#xfb;" horiz-adv-x="1241" d="M54.5 286q4.5 63 21.5 142l119 559h352l-119 -559q-22 -86 5.5 -128t86.5 -42q64 0 121 48.5t74 127.5l116 553h349l-148 -696q-15 -49 -4.5 -72.5t66.5 -23.5l-39 -191q-26 -6 -52 -11t-59 -9.5t-63 -5.5t-62.5 0t-57.5 8t-48.5 19t-35 32t-17.5 46.5t4 63.5 q-54 -75 -142 -118t-176 -43q-86 0 -146 22.5t-92.5 61t-45 96t-8 120.5zM268 1133l6 32l351 303h333l216 -303l-7 -32h-319l-100 139l-154 -139h-326z" />
<glyph unicode="&#xfc;" horiz-adv-x="1241" d="M54.5 286q4.5 63 21.5 142l119 559h352l-119 -559q-22 -86 5.5 -128t86.5 -42q64 0 121 48.5t74 127.5l116 553h349l-148 -696q-15 -49 -4.5 -72.5t66.5 -23.5l-39 -191q-26 -6 -52 -11t-59 -9.5t-63 -5.5t-62.5 0t-57.5 8t-48.5 19t-35 32t-17.5 46.5t4 63.5 q-54 -75 -142 -118t-176 -43q-86 0 -146 22.5t-92.5 61t-45 96t-8 120.5zM297 1274q0 86 69 143.5t162 57.5q68 0 112 -39.5t44 -102.5q0 -88 -68.5 -144t-160.5 -56q-70 0 -114 38t-44 103zM842 1272q0 87 68 145t161 58q68 0 111 -38.5t43 -101.5q0 -90 -66.5 -146 t-161.5 -56q-70 0 -112.5 37t-42.5 102z" />
<glyph unicode="&#xfd;" horiz-adv-x="1249" d="M-6 -428l69 260q59 -33 127.5 -55.5t147.5 -28.5t146 12.5t120.5 78t73.5 157.5l29 139q-42 -70 -114.5 -109.5t-150.5 -39.5q-420 0 -321 491l43 205q13 63 -1 84.5t-77 21.5l43 197q71 17 133 20.5t119 -7t91 -41.5t50 -84t-4 -134l-55 -258q-39 -207 110 -207 q139 0 191 220l104 493h344l-211 -991q-28 -132 -88.5 -235.5t-141 -166.5t-178 -97.5t-199.5 -35t-204.5 27t-195.5 83.5zM551 1100l6 33l248 370l297 -114l-6 -31l-262 -258h-283z" />
<glyph unicode="&#xfe;" horiz-adv-x="1198" d="M-111 -506l420 1979h348l-102 -490q181 59 308 25t195 -137t68 -253q0 -101 -29 -197.5t-80 -175.5t-124.5 -139.5t-158 -93t-184.5 -32t-200 39.5l-112 -526h-349zM403 317q53 -25 106.5 -30t99.5 11.5t82 49.5t56.5 87t20.5 120q0 111 -82 146.5t-203 -15.5z" />
<glyph unicode="&#xff;" horiz-adv-x="1249" d="M-6 -428l69 260q59 -33 127.5 -55.5t147.5 -28.5t146 12.5t120.5 78t73.5 157.5l29 139q-42 -70 -114.5 -109.5t-150.5 -39.5q-420 0 -321 491l43 205q13 63 -1 84.5t-77 21.5l43 197q71 17 133 20.5t119 -7t91 -41.5t50 -84t-4 -134l-55 -258q-39 -207 110 -207 q139 0 191 220l104 493h344l-211 -991q-28 -132 -88.5 -235.5t-141 -166.5t-178 -97.5t-199.5 -35t-204.5 27t-195.5 83.5zM309 1251q0 89 70.5 148t165.5 59q70 0 115 -40t45 -105q0 -90 -70 -147.5t-166 -57.5q-70 0 -115 39t-45 104zM866 1249q0 90 70 149.5t166 59.5 q70 0 114 -39t44 -104q0 -90 -69.5 -148.5t-164.5 -58.5q-73 0 -116.5 38t-43.5 103z" />
<glyph unicode="&#x152;" horiz-adv-x="1892" d="M90 553q0 172 52 320.5t140.5 253.5t205 180t246 111t263.5 36q99 0 187 -24h768q-38 -185 -70 -326h-504l-43 -205h461l-65 -309h-461l-58 -266h523l-68 -324h-795q-104 -23 -208 -23q-122 0 -226 37.5t-182 108t-122 181t-44 249.5zM465 631q0 -146 82 -245t219 -99 q63 0 131 22l168 793q-52 20 -125 24q-124 0 -233.5 -67t-175.5 -182t-66 -246z" />
<glyph unicode="&#x153;" horiz-adv-x="1697" d="M37 389q2 122 37.5 225.5t95.5 176.5t139 124.5t167 76t181 24.5q97 0 177 -44t108 -126q136 160 340 170q66 2 125 -8.5t111.5 -35t84.5 -65t45.5 -99.5t-6.5 -138q-18 -75 -58.5 -134t-95.5 -95.5t-116.5 -56.5t-126.5 -24q-142 -9 -241 52q-7 -92 54.5 -131.5 t164.5 -34.5q79 4 166 26.5t143 51.5l-41 -261q-81 -45 -161 -63t-185 -23q-135 -6 -229 38t-136 137q-65 -84 -153.5 -128.5t-186.5 -46.5q-81 0 -154 26.5t-129.5 77t-89 130t-30.5 178.5zM375 444q0 -76 37 -118.5t94 -42.5q83 0 152 73.5t69 194.5q0 76 -35.5 118 t-91.5 44q-86 0 -155.5 -72t-69.5 -197zM1059 606q31 -18 78.5 -28.5t89.5 -6.5q40 2 75 31.5t35 73.5q0 39 -33 56.5t-75 15.5q-114 -12 -170 -142z" />
<glyph unicode="&#x178;" horiz-adv-x="1304" d="M147 1378l13 56h397l162 -476h14l363 476h397l-12 -56l-660 -833l-112 -545h-373l121 567zM410 1675q0 89 70 148t165 59q70 0 115 -40t45 -105q0 -90 -70 -147.5t-166 -57.5q-70 0 -114.5 39t-44.5 104zM967 1673q0 90 69.5 149.5t165.5 59.5q70 0 114 -39t44 -104 q0 -90 -69.5 -148.5t-164.5 -58.5q-73 0 -116 38t-43 103z" />
<glyph unicode="&#x2c6;" horiz-adv-x="1087" d="M299 1083l6 33l367 320h350l225 -320l-6 -33h-336l-104 146l-162 -146h-340z" />
<glyph unicode="&#x2dc;" horiz-adv-x="1030" d="M340 1223q99 171 218.5 228t262.5 -11q1 0 17.5 -9t20 -10.5t19.5 -8.5t22 -7.5t21 -4t22 -1t20 5t21 10t18 19t18 26.5l166 -88q-70 -157 -201 -225t-248 -4q-5 2 -25.5 13t-29 15t-29 12t-31.5 9t-29.5 0.5t-31 -7t-27 -19.5t-26.5 -33q-28 13 -84.5 44.5t-83.5 45.5z " />
<glyph unicode="&#x2000;" horiz-adv-x="984" />
<glyph unicode="&#x2001;" horiz-adv-x="1968" />
<glyph unicode="&#x2002;" horiz-adv-x="984" />
<glyph unicode="&#x2003;" horiz-adv-x="1968" />
<glyph unicode="&#x2004;" horiz-adv-x="656" />
<glyph unicode="&#x2005;" horiz-adv-x="492" />
<glyph unicode="&#x2006;" horiz-adv-x="328" />
<glyph unicode="&#x2007;" horiz-adv-x="328" />
<glyph unicode="&#x2008;" horiz-adv-x="246" />
<glyph unicode="&#x2009;" horiz-adv-x="393" />
<glyph unicode="&#x200a;" horiz-adv-x="109" />
<glyph unicode="&#x2010;" horiz-adv-x="972" d="M102 532l64 299h739l-63 -299h-740z" />
<glyph unicode="&#x2011;" horiz-adv-x="972" d="M102 532l64 299h739l-63 -299h-740z" />
<glyph unicode="&#x2012;" horiz-adv-x="972" d="M102 532l64 299h739l-63 -299h-740z" />
<glyph unicode="&#x2013;" horiz-adv-x="1116" d="M102 532l64 299h883l-64 -299h-883z" />
<glyph unicode="&#x2014;" horiz-adv-x="1296" d="M102 532l64 299h1063l-64 -299h-1063z" />
<glyph unicode="&#x2018;" horiz-adv-x="569" d="M180 1040q0 15 1.5 28.5t3.5 21.5t6.5 18t7 13.5t9 13.5t7.5 12l160 295h203l-95 -187q50 -14 80.5 -53t30.5 -94q0 -96 -74 -158.5t-174 -62.5q-73 0 -119.5 41t-46.5 112z" />
<glyph unicode="&#x2019;" horiz-adv-x="573" d="M221 1231q0 96 74 158.5t174 62.5q73 0 118.5 -41.5t45.5 -112.5q0 -18 -2 -32.5t-6 -25.5t-7 -17.5t-9.5 -16.5t-8.5 -14l-160 -295h-202l92 186q-48 14 -78.5 54t-30.5 94z" />
<glyph unicode="&#x201a;" horiz-adv-x="593" d="M2 117q0 96 74 158.5t174 62.5q73 0 118.5 -41.5t45.5 -112.5q0 -18 -2 -32.5t-6 -25.5t-7 -17.5t-9.5 -16.5t-8.5 -14l-160 -295h-203l93 186q-48 14 -78.5 54t-30.5 94z" />
<glyph unicode="&#x201c;" horiz-adv-x="1077" d="M180 1040q0 15 1.5 28.5t3.5 21.5t6.5 18t7 13.5t9 13.5t7.5 12l160 295h203l-95 -187q50 -14 80.5 -53t30.5 -94q0 -96 -74 -158.5t-174 -62.5q-73 0 -119.5 41t-46.5 112zM688 1040q0 15 1.5 28.5t3.5 21.5t6.5 18t7 13.5t9 13.5t7.5 12l160 295h202l-94 -187 q50 -14 80.5 -53t30.5 -94q0 -96 -74 -158.5t-174 -62.5q-73 0 -119.5 41t-46.5 112z" />
<glyph unicode="&#x201d;" horiz-adv-x="1089" d="M221 1231q0 96 74 158.5t174 62.5q73 0 118.5 -41.5t45.5 -112.5q0 -18 -2 -32.5t-6 -25.5t-7 -17.5t-9.5 -16.5t-8.5 -14l-160 -295h-202l92 186q-48 14 -78.5 54t-30.5 94zM737 1231q0 96 74 158.5t174 62.5q73 0 118.5 -41.5t45.5 -112.5q0 -18 -2 -32.5t-6 -25.5 t-7 -17.5t-9.5 -16.5t-8.5 -14l-160 -295h-202l92 186q-48 14 -78.5 54t-30.5 94z" />
<glyph unicode="&#x201e;" horiz-adv-x="1099" d="M2 117q0 96 74 158.5t174 62.5q73 0 118.5 -41.5t45.5 -112.5q0 -18 -2 -32.5t-6 -25.5t-7 -17.5t-9.5 -16.5t-8.5 -14l-160 -295h-203l93 186q-48 14 -78.5 54t-30.5 94zM508 117q0 96 74 158.5t174 62.5q73 0 118.5 -41.5t45.5 -112.5q0 -18 -2 -32.5t-6 -25.5 t-7 -17.5t-9.5 -16.5t-8.5 -14l-160 -295h-203l92 186q-48 14 -78 53.5t-30 94.5z" />
<glyph unicode="&#x2022;" horiz-adv-x="993" d="M162 678q0 111 62.5 201t161 138t208.5 48q130 0 211.5 -73.5t81.5 -196.5q0 -110 -61.5 -199.5t-160 -137.5t-210.5 -48q-129 0 -211 73t-82 195z" />
<glyph unicode="&#x2026;" horiz-adv-x="1748" d="M2 117q0 95 74.5 158t173.5 63q74 0 120 -41.5t46 -112.5q0 -95 -73.5 -158t-172.5 -63q-73 0 -120.5 43t-47.5 111zM575 117q0 95 74.5 158t173.5 63q74 0 120 -41.5t46 -112.5q0 -95 -73.5 -158t-172.5 -63q-73 0 -120.5 43t-47.5 111zM1155 117q0 95 75.5 158 t172.5 63q74 0 120 -41.5t46 -112.5q0 -96 -73 -158.5t-173 -62.5q-73 0 -120.5 43t-47.5 111z" />
<glyph unicode="&#x202f;" horiz-adv-x="393" />
<glyph unicode="&#x2039;" horiz-adv-x="671" d="M113 709l434 520l137 -78l-287 -442l101 -437l-172 -79z" />
<glyph unicode="&#x203a;" horiz-adv-x="671" d="M41 272l285 437l-99 442l170 78l213 -520l-432 -516z" />
<glyph unicode="&#x205f;" horiz-adv-x="492" />
<glyph unicode="&#x20ac;" horiz-adv-x="1343" d="M68 502l34 166h131q10 64 31 118h-135l35 164h160q79 161 210.5 276t279.5 168.5t302 53.5q165 0 283 -55l-170 -291q-65 35 -166 35t-192 -49.5t-158 -137.5h374l-88 -164h-372q-26 -62 -29 -118h334l-90 -166h-242q50 -197 285 -197q123 0 219 57l57 -303 q-172 -75 -356 -75q-276 0 -429.5 132t-154.5 386h-153z" />
<glyph unicode="&#x2122;" horiz-adv-x="1550" d="M266 1231q20 79 43 205h531q-23 -126 -43 -205h-150l-78 -367h-229l78 367h-152zM795 864l120 572h113l176 -213l264 213h113l-121 -572h-229l39 180l-119 -92h-10l-78 92l-39 -180h-229z" />
<glyph unicode="&#x25fc;" horiz-adv-x="983" d="M0 0v983h983v-983h-983z" />
</font>
</defs>
</svg>
